  0
SECTION
  2
HEADER
  9
$ACADVER
  1
AC1018
  9
$ACADMAINTVER
 70
     0
  9
$DWGCODEPAGE
  3
ANSI_1252
  9
$INSBASE
 10
0.0
 20
0.0
 30
0.0
  9
$EXTMIN
 10
0.0
 20
0.0
 30
0.0
  9
$EXTMAX
 10
297.0
 20
210.0
 30
0.0
  9
$LIMMIN
 10
0.0
 20
0.0
  9
$LIMMAX
 10
297.0
 20
210.0
  9
$ORTHOMODE
 70
     0
  9
$REGENMODE
 70
     1
  9
$FILLMODE
 70
     1
  9
$QTEXTMODE
 70
     0
  9
$MIRRTEXT
 70
     1
  9
$LTSCALE
 40
1.0
  9
$ATTMODE
 70
     1
  9
$TEXTSIZE
 40
3.5
  9
$TRACEWID
 40
1.0
  9
$TEXTSTYLE
  7
Standard
  9
$CLAYER
  8
0
  9
$CELTYPE
  6
ByLayer
  9
$CECOLOR
 62
   256
  9
$CELTSCALE
 40
1.0
  9
$DISPSILH
 70
     0
  9
$DIMSCALE
 40
1.0
  9
$DIMASZ
 40
3.302
  9
$DIMEXO
 40
1.0
  9
$DIMDLI
 40
3.75
  9
$DIMRND
 40
0.0
  9
$DIMDLE
 40
0.0
  9
$DIMEXE
 40
1.0
  9
$DIMTP
 40
0.0
  9
$DIMTM
 40
0.0
  9
$DIMTXT
 40
3.5
  9
$DIMCEN
 40
2.5
  9
$DIMTSZ
 40
0.0
  9
$DIMTOL
 70
     0
  9
$DIMLIM
 70
     0
  9
$DIMTIH
 70
     1
  9
$DIMTOH
 70
     1
  9
$DIMSE1
 70
     0
  9
$DIMSE2
 70
     0
  9
$DIMTAD
 70
     1
  9
$DIMZIN
 70
     0
  9
$DIMBLK
  1

  9
$DIMASO
 70
     1
  9
$DIMSHO
 70
     1
  9
$DIMPOST
  1

  9
$DIMAPOST
  1

  9
$DIMALT
 70
     0
  9
$DIMALTD
 70
     3
  9
$DIMALTF
 40
0.0393700787
  9
$DIMLFAC
 40
1.0
  9
$DIMTOFL
 70
     1
  9
$DIMTVP
 40
0.0
  9
$DIMTIX
 70
     0
  9
$DIMSOXD
 70
     0
  9
$DIMSAH
 70
     0
  9
$DIMBLK1
  1

  9
$DIMBLK2
  1

  9
$DIMSTYLE
  2
ISO-25
  9
$DIMCLRD
 70
     0
  9
$DIMCLRE
 70
     0
  9
$DIMCLRT
 70
     0
  9
$DIMTFAC
 40
1.0
  9
$DIMGAP
 40
1.524
  9
$DIMJUST
 70
     0
  9
$DIMSD1
 70
     0
  9
$DIMSD2
 70
     0
  9
$DIMTOLJ
 70
     0
  9
$DIMTZIN
 70
     0
  9
$DIMALTZ
 70
     0
  9
$DIMALTTZ
 70
     0
  9
$DIMUPT
 70
     0
  9
$DIMDEC
 70
     2
  9
$DIMTDEC
 70
     2
  9
$DIMALTU
 70
     2
  9
$DIMALTTD
 70
     3
  9
$DIMTXSTY
  7
Standard
  9
$DIMAUNIT
 70
     0
  9
$DIMADEC
 70
     2
  9
$DIMALTRND
 40
0.0
  9
$DIMAZIN
 70
     0
  9
$DIMDSEP
 70
    44
  9
$DIMATFIT
 70
     3
  9
$DIMFRAC
 70
     0
  9
$DIMLDRBLK
  1

  9
$DIMLUNIT
 70
     2
  9
$DIMLWD
 70
    -2
  9
$DIMLWE
 70
    -2
  9
$DIMTMOVE
 70
     0
  9
$LUNITS
 70
     2
  9
$LUPREC
 70
     2
  9
$SKETCHINC
 40
1.0
  9
$FILLETRAD
 40
10.0
  9
$AUNITS
 70
     0
  9
$AUPREC
 70
     2
  9
$MENU
  1
.
  9
$ELEVATION
 40
0.0
  9
$PELEVATION
 40
0.0
  9
$THICKNESS
 40
0.0
  9
$LIMCHECK
 70
     0
  9
$CHAMFERA
 40
0.0
  9
$CHAMFERB
 40
0.0
  9
$CHAMFERC
 40
0.0
  9
$CHAMFERD
 40
0.0
  9
$SKPOLY
 70
     0
  9
$TDCREATE
 40
2457785.408403009
  9
$TDUCREATE
 40
2457785.366736343
  9
$TDUPDATE
 40
2457785.40840338
  9
$TDUUPDATE
 40
2457785.366736713
  9
$TDINDWG
 40
0.0000000116
  9
$TDUSRTIMER
 40
0.0000000116
  9
$USRTIMER
 70
     1
  9
$ANGBASE
 50
0.0
  9
$ANGDIR
 70
     0
  9
$PDMODE
 70
     0
  9
$PDSIZE
 40
-1.0
  9
$PLINEWID
 40
0.0
  9
$SPLFRAME
 70
     0
  9
$SPLINETYPE
 70
     6
  9
$SPLINESEGS
 70
     8
  9
$HANDSEED
  5
14A
  9
$SURFTAB1
 70
     6
  9
$SURFTAB2
 70
     6
  9
$SURFTYPE
 70
     6
  9
$SURFU
 70
     6
  9
$SURFV
 70
     6
  9
$UCSBASE
  2

  9
$UCSNAME
  2

  9
$UCSORG
 10
0.0
 20
0.0
 30
0.0
  9
$UCSXDIR
 10
1.0
 20
0.0
 30
0.0
  9
$UCSYDIR
 10
0.0
 20
1.0
 30
0.0
  9
$UCSORTHOREF
  2

  9
$UCSORTHOVIEW
 70
     0
  9
$UCSORGTOP
 10
0.0
 20
0.0
 30
0.0
  9
$UCSORGBOTTOM
 10
0.0
 20
0.0
 30
0.0
  9
$UCSORGLEFT
 10
0.0
 20
0.0
 30
0.0
  9
$UCSORGRIGHT
 10
0.0
 20
0.0
 30
0.0
  9
$UCSORGFRONT
 10
0.0
 20
0.0
 30
0.0
  9
$UCSORGBACK
 10
0.0
 20
0.0
 30
0.0
  9
$PUCSBASE
  2

  9
$PUCSNAME
  2

  9
$PUCSORG
 10
0.0
 20
0.0
 30
0.0
  9
$PUCSXDIR
 10
1.0
 20
0.0
 30
0.0
  9
$PUCSYDIR
 10
0.0
 20
1.0
 30
0.0
  9
$PUCSORTHOREF
  2

  9
$PUCSORTHOVIEW
 70
     0
  9
$PUCSORGTOP
 10
0.0
 20
0.0
 30
0.0
  9
$PUCSORGBOTTOM
 10
0.0
 20
0.0
 30
0.0
  9
$PUCSORGLEFT
 10
0.0
 20
0.0
 30
0.0
  9
$PUCSORGRIGHT
 10
0.0
 20
0.0
 30
0.0
  9
$PUCSORGFRONT
 10
0.0
 20
0.0
 30
0.0
  9
$PUCSORGBACK
 10
0.0
 20
0.0
 30
0.0
  9
$USERI1
 70
     0
  9
$USERI2
 70
     0
  9
$USERI3
 70
     0
  9
$USERI4
 70
     0
  9
$USERI5
 70
     0
  9
$USERR1
 40
0.0
  9
$USERR2
 40
0.0
  9
$USERR3
 40
0.0
  9
$USERR4
 40
0.0
  9
$USERR5
 40
0.0
  9
$WORLDVIEW
 70
     1
  9
$SHADEDGE
 70
     3
  9
$SHADEDIF
 70
    70
  9
$TILEMODE
 70
     1
  9
$MAXACTVP
 70
    64
  9
$PINSBASE
 10
0.0
 20
0.0
 30
0.0
  9
$PLIMCHECK
 70
     0
  9
$PEXTMIN
 10
1.0000000000E+20
 20
1.0000000000E+20
 30
1.0000000000E+20
  9
$PEXTMAX
 10
-1.0000000000E+20
 20
-1.0000000000E+20
 30
-1.0000000000E+20
  9
$PLIMMIN
 10
0.0
 20
0.0
  9
$PLIMMAX
 10
420.0
 20
297.0
  9
$UNITMODE
 70
     0
  9
$VISRETAIN
 70
     1
  9
$PLINEGEN
 70
     0
  9
$PSLTSCALE
 70
     1
  9
$TREEDEPTH
 70
  3020
  9
$CMLSTYLE
  2
Standard
  9
$CMLJUST
 70
     0
  9
$CMLSCALE
 40
20.0
  9
$PROXYGRAPHICS
 70
     1
  9
$MEASUREMENT
 70
     1
  9
$CELWEIGHT
370
    -1
  9
$ENDCAPS
280
     0
  9
$JOINSTYLE
280
     0
  9
$LWDISPLAY
290
     1
  9
$INSUNITS
 70
     4
  9
$HYPERLINKBASE
  1

  9
$STYLESHEET
  1

  9
$XEDIT
290
     1
  9
$CEPSNTYPE
380
     0
  9
$PSTYLEMODE
290
     1
  9
$FINGERPRINTGUID
  2
{73F046C9-3D5F-409D-A123-98F3B782D201}
  9
$VERSIONGUID
  2
{FAEB1C32-E019-11D5-929B-00C0DF256EC4}
  9
$EXTNAMES
290
     1
  9
$PSVPSCALE
 40
0.0
  9
$OLESTARTUP
290
     0
  9
$SORTENTS
280
   127
  9
$INDEXCTL
280
     0
  9
$HIDETEXT
280
     1
  9
$XCLIPFRAME
290
     0
  9
$HALOGAP
280
     0
  9
$OBSCOLOR
 70
   257
  9
$OBSLTYPE
280
     0
  9
$INTERSECTIONDISPLAY
280
     0
  9
$INTERSECTIONCOLOR
 70
   257
  9
$DIMASSOC
280
     2
  9
$PROJECTNAME
  1

  0
ENDSEC
  0
SECTION
  2
CLASSES
  0
CLASS
  1
ACDBDICTIONARYWDFLT
  2
AcDbDictionaryWithDefault
  3
ObjectDBX Classes
 90
        0
 91
        4
280
     0
281
     0
  0
CLASS
  1
VISUALSTYLE
  2
AcDbVisualStyle
  3
ObjectDBX Classes
 90
     4095
 91
        4
280
     0
281
     0
  0
CLASS
  1
MATERIAL
  2
AcDbMaterial
  3
ObjectDBX Classes
 90
     1153
 91
        4
280
     0
281
     0
  0
CLASS
  1
SCALE
  2
AcDbScale
  3
ObjectDBX Classes
 90
     1153
 91
        4
280
     0
281
     0
  0
CLASS
  1
TABLESTYLE
  2
AcDbTableStyle
  3
ObjectDBX Classes
 90
     4095
 91
        4
280
     0
281
     0
  0
CLASS
  1
MLEADERSTYLE
  2
AcDbMLeaderStyle
  3
ACDB_MLEADERSTYLE_CLASS
 90
     4095
 91
        4
280
     0
281
     0
  0
CLASS
  1
SUN
  2
AcDbSun
  3
SCENEOE
 90
     1153
 91
        4
280
     0
281
     0
  0
CLASS
  1
DICTIONARYVAR
  2
AcDbDictionaryVar
  3
ObjectDBX Classes
 90
        0
 91
        4
280
     0
281
     0
  0
CLASS
  1
CELLSTYLEMAP
  2
AcDbCellStyleMap
  3
ObjectDBX Classes
 90
     1152
 91
        4
280
     0
281
     0
  0
ENDSEC
  0
SECTION
  2
TABLES
  0
TABLE
  2
VPORT
  5
8
330
0
100
AcDbSymbolTable
 70
     1
  0
VPORT
  5
29
330
8
100
AcDbSymbolTableRecord
100
AcDbViewportTableRecord
  2
*Active
 70
     0
 10
0.0
 20
0.0
 11
1.0
 21
1.0
 12
148.5
 22
105.0
 13
0.0
 23
0.0
 14
10.0
 24
10.0
 15
10.0
 25
10.0
 16
0.0
 26
0.0
 36
1.0
 17
0.0
 27
0.0
 37
0.0
 40
210.0
 41
1.4142857143
 42
50.0
 43
0.0
 44
0.0
 50
0.0
 51
0.0
 71
     0
 72
  2000
 73
     1
 74
     3
 75
     0
 76
     0
 77
     0
 78
     0
281
     0
 65
     1
110
0.0
120
0.0
130
0.0
111
1.0
121
0.0
131
0.0
112
0.0
122
1.0
132
0.0
 79
     0
146
0.0
  0
ENDTAB
  0
TABLE
  2
LTYPE
  5
5
330
0
100
AcDbSymbolTable
 70
     8
  0
LTYPE
  5
14
330
5
100
AcDbSymbolTableRecord
100
AcDbLinetypeTableRecord
  2
ByBlock
 70
     0
  3

 72
    65
 73
     0
 40
0.0
  0
LTYPE
  5
15
330
5
100
AcDbSymbolTableRecord
100
AcDbLinetypeTableRecord
  2
ByLayer
 70
     0
  3

 72
    65
 73
     0
 40
0.0
  0
LTYPE
  5
16
330
5
100
AcDbSymbolTableRecord
100
AcDbLinetypeTableRecord
  2
Continuous
 70
     0
  3
Solid line
 72
    65
 73
     0
 40
0.0
  0
LTYPE
  5
6E
330
5
100
AcDbSymbolTableRecord
100
AcDbLinetypeTableRecord
  2
SLD-Durchgehend
 70
     0
  3
SolidWorks Line Style
 72
    65
 73
     0
 40
0.0
  0
LTYPE
  5
6F
330
5
100
AcDbSymbolTableRecord
100
AcDbLinetypeTableRecord
  2
SLD-Gestrichelt
 70
     0
  3
SolidWorks Line Style
 72
    65
 73
     2
 40
1.905
 49
1.27
 74
     0
 49
-0.635
 74
     0
  0
LTYPE
  5
70
330
5
100
AcDbSymbolTableRecord
100
AcDbLinetypeTableRecord
  2
SLD-Phantom
 70
     0
  3
SolidWorks Line Style
 72
    65
 73
     6
 40
12.7
 49
6.35
 74
     0
 49
-1.27
 74
     0
 49
1.27
 74
     0
 49
-1.27
 74
     0
 49
1.27
 74
     0
 49
-1.27
 74
     0
  0
LTYPE
  5
71
330
5
100
AcDbSymbolTableRecord
100
AcDbLinetypeTableRecord
  2
SLD-Kette
 70
     0
  3
SolidWorks Line Style
 72
    65
 73
     4
 40
10.16
 49
6.35
 74
     0
 49
-1.27
 74
     0
 49
1.27
 74
     0
 49
-1.27
 74
     0
  0
LTYPE
  5
72
330
5
100
AcDbSymbolTableRecord
100
AcDbLinetypeTableRecord
  2
SLD-Punktstrich
 70
     0
  3
SolidWorks Line Style
 72
    65
 73
     4
 40
19.05
 49
15.24
 74
     0
 49
-1.27
 74
     0
 49
1.27
 74
     0
 49
-1.27
 74
     0
  0
LTYPE
  5
73
330
5
100
AcDbSymbolTableRecord
100
AcDbLinetypeTableRecord
  2
SLD-Naht
 70
     0
  3
SolidWorks Line Style
 72
    65
 73
     2
 40
0.635
 49
0.0
 74
     0
 49
-0.635
 74
     0
  0
LTYPE
  5
74
330
5
100
AcDbSymbolTableRecord
100
AcDbLinetypeTableRecord
  2
SLD-Dicke-Dünne-Kette
 70
     0
  3
SolidWorks Line Style
 72
    65
 73
     4
 40
10.16
 49
6.35
 74
     0
 49
-1.27
 74
     0
 49
1.27
 74
     0
 49
-1.27
 74
     0
  0
ENDTAB
  0
TABLE
  2
LAYER
  5
2
330
0
100
AcDbSymbolTable
 70
     4
  0
LAYER
  5
10
330
2
100
AcDbSymbolTableRecord
100
AcDbLayerTableRecord
  2
0
 70
     0
 62
     7
  6
Continuous
370
    -3
390
F
  0
LAYER
  5
75
330
2
100
AcDbSymbolTableRecord
100
AcDbLayerTableRecord
  2
1
 70
     0
 62
     4
  6
Continuous
370
    -1
390
F
  0
LAYER
  5
76
330
2
100
AcDbSymbolTableRecord
100
AcDbLayerTableRecord
  2
2
 70
     0
 62
     7
  6
SLD-Durchgehend
370
    -3
390
F
  0
LAYER
  5
77
330
2
100
AcDbSymbolTableRecord
100
AcDbLayerTableRecord
  2
3
 70
     0
 62
    91
  6
SLD-Punktstrich
370
    -3
390
F
  0
ENDTAB
  0
TABLE
  2
STYLE
  5
3
330
0
100
AcDbSymbolTable
 70
     2
  0
STYLE
  5
11
330
3
100
AcDbSymbolTableRecord
100
AcDbTextStyleTableRecord
  2
Standard
 70
     0
 40
0.0
 41
1.0
 50
0.0
 71
     0
 42
3.5
  3
txt
  4

  0
STYLE
  5
10D
330
3
100
AcDbSymbolTableRecord
100
AcDbTextStyleTableRecord
  2
SLDTEXTSTYLE0
 70
     0
 40
0.0
 41
0.75
 50
0.0
 71
     0
 42
3.5
  3
TXT
  4

  0
ENDTAB
  0
TABLE
  2
VIEW
  5
6
330
0
100
AcDbSymbolTable
 70
     0
  0
ENDTAB
  0
TABLE
  2
UCS
  5
7
330
0
100
AcDbSymbolTable
 70
     0
  0
ENDTAB
  0
TABLE
  2
APPID
  5
9
330
0
100
AcDbSymbolTable
 70
     2
  0
APPID
  5
12
330
9
100
AcDbSymbolTableRecord
100
AcDbRegAppTableRecord
  2
ACAD
 70
     0
  0
APPID
  5
144
330
9
100
AcDbSymbolTableRecord
100
AcDbRegAppTableRecord
  2
ACAD_MLEADERVER
 70
     0
  0
ENDTAB
  0
TABLE
  2
DIMSTYLE
  5
A
330
0
100
AcDbSymbolTable
 70
     3
100
AcDbDimStyleTable
  0
DIMSTYLE
105
27
330
A
100
AcDbSymbolTableRecord
100
AcDbDimStyleTableRecord
  2
ISO-25
 70
     0
 41
2.5
 42
0.625
 43
3.75
 44
1.25
 73
     0
 74
     0
 77
     1
 78
     8
140
2.5
141
2.5
143
0.0393700787
147
0.625
171
     3
172
     1
178
     0
271
     2
272
     2
274
     3
278
    44
283
     0
284
     8
340
11
  0
DIMSTYLE
105
10E
102
{ACAD_REACTORS
330
10C
330
118
330
130
102
}
330
A
100
AcDbSymbolTableRecord
100
AcDbDimStyleTableRecord
  2
SLDDIMSTYLE0
 70
     0
 41
3.302
 44
0.0
 45
0.000000001
 73
     0
 74
     0
 77
     1
 78
    12
 79
     3
140
3.5
147
0.875
173
     1
178
     0
271
     2
272
     2
276
     2
284
    12
340
10D
  0
DIMSTYLE
105
123
102
{ACAD_REACTORS
330
122
102
}
330
A
100
AcDbSymbolTableRecord
100
AcDbDimStyleTableRecord
  2
SLDDIMSTYLE1
 70
     0
 41
3.302
 44
0.0
 45
0.000000001
 73
     0
 74
     0
 77
     1
 78
    12
 79
     3
140
3.5
147
0.875
172
     1
173
     1
178
     0
271
     2
272
     2
276
     2
284
    12
289
     0
340
10D
  0
ENDTAB
  0
TABLE
  2
BLOCK_RECORD
  5
1
330
0
100
AcDbSymbolTable
 70
     5
  0
BLOCK_RECORD
  5
1F
330
1
100
AcDbSymbolTableRecord
100
AcDbBlockTableRecord
  2
*Model_Space
340
22
  0
BLOCK_RECORD
  5
1B
330
1
100
AcDbSymbolTableRecord
100
AcDbBlockTableRecord
  2
*Paper_Space
340
1E
  0
BLOCK_RECORD
  5
23
330
1
100
AcDbSymbolTableRecord
100
AcDbBlockTableRecord
  2
*Paper_Space0
340
26
  0
BLOCK_RECORD
  5
10F
330
1
100
AcDbSymbolTableRecord
100
AcDbBlockTableRecord
  2
_D
340
0
  0
BLOCK_RECORD
  5
119
330
1
100
AcDbSymbolTableRecord
100
AcDbBlockTableRecord
  2
_D_1
340
0
  0
BLOCK_RECORD
  5
124
330
1
100
AcDbSymbolTableRecord
100
AcDbBlockTableRecord
  2
_D_2
340
0
  0
BLOCK_RECORD
  5
131
330
1
100
AcDbSymbolTableRecord
100
AcDbBlockTableRecord
  2
_D_3
340
0
  0
ENDTAB
  0
ENDSEC
  0
SECTION
  2
BLOCKS
  0
BLOCK
  5
20
330
1F
100
AcDbEntity
  8
0
100
AcDbBlockBegin
  2
*Model_Space
 70
     0
 10
0.0
 20
0.0
 30
0.0
  3
*Model_Space
  1

  0
ENDBLK
  5
21
330
1F
100
AcDbEntity
  8
0
100
AcDbBlockEnd
  0
BLOCK
  5
1C
330
1B
100
AcDbEntity
 67
     1
  8
0
100
AcDbBlockBegin
  2
*Paper_Space
 70
     0
 10
0.0
 20
0.0
 30
0.0
  3
*Paper_Space
  1

  0
ENDBLK
  5
1D
330
1B
100
AcDbEntity
 67
     1
  8
0
100
AcDbBlockEnd
  0
BLOCK
  5
24
330
23
100
AcDbEntity
  8
0
100
AcDbBlockBegin
  2
*Paper_Space0
 70
     0
 10
0.0
 20
0.0
 30
0.0
  3
*Paper_Space0
  1

  0
ENDBLK
  5
25
330
23
100
AcDbEntity
  8
0
100
AcDbBlockEnd
  0
BLOCK
  5
110
330
10F
100
AcDbEntity
  8
0
100
AcDbBlockBegin
  2
_D
 70
     0
 10
0.0
 20
0.0
 30
0.0
  3
_D
  1

  0
SOLID
  5
112
330
10F
100
AcDbEntity
  8
2
 62
     7
420
 16777215
100
AcDbTrace
 10
-68.4001630015
 20
43.7782030286
 30
0.0
 11
-65.0981630015
 21
43.2702030286
 31
0.0
 12
-65.0981630015
 22
44.2862030286
 32
0.0
 13
-65.0981630015
 23
44.2862030286
 33
0.0
  0
SOLID
  5
113
330
10F
100
AcDbEntity
  8
2
 62
     7
420
 16777215
100
AcDbTrace
 10
99.9998369985
 20
43.7782030286
 30
0.0
 11
96.6978369985
 21
44.2862030286
 31
0.0
 12
96.6978369985
 22
43.2702030286
 32
0.0
 13
96.6978369985
 23
43.2702030286
 33
0.0
  0
LINE
  5
114
330
10F
100
AcDbEntity
  8
2
 62
     7
420
 16777215
100
AcDbLine
 10
-68.4001630015
 20
1.0032030286
 30
0.0
 11
-68.4001630015
 21
44.7782030286
 31
0.0
  0
LINE
  5
115
330
10F
100
AcDbEntity
  8
2
 62
     7
420
 16777215
100
AcDbLine
 10
99.9998369985
 20
1.0032030286
 30
0.0
 11
99.9998369985
 21
44.7782030286
 31
0.0
  0
LINE
  5
116
330
10F
100
AcDbEntity
  8
2
 62
     7
420
 16777215
100
AcDbLine
 10
-68.4001630015
 20
43.7782030286
 30
0.0
 11
99.9998369985
 21
43.7782030286
 31
0.0
  0
MTEXT
  5
117
330
10F
100
AcDbEntity
  8
2
 62
     7
420
 16777215
100
AcDbMText
 10
8.6880310417
 20
48.2899399432
 30
0.0
 40
3.5
 41
0.0
 71
     1
 72
     1
  1
168,40
  7
SLDTEXTSTYLE0
 73
     1
 44
1.0
  0
ENDBLK
  5
111
330
10F
100
AcDbEntity
  8
0
100
AcDbBlockEnd
  0
BLOCK
  5
11A
330
119
100
AcDbEntity
  8
0
100
AcDbBlockBegin
  2
_D_1
 70
     0
 10
0.0
 20
0.0
 30
0.0
  3
_D_1
  1

  0
SOLID
  5
11C
330
119
100
AcDbEntity
  8
2
 62
     7
420
 16777215
100
AcDbTrace
 10
99.9998369985
 20
37.7782030286
 30
0.0
 11
96.6978369985
 21
38.2862030286
 31
0.0
 12
96.6978369985
 22
37.2702030286
 32
0.0
 13
96.6978369985
 23
37.2702030286
 33
0.0
  0
SOLID
  5
11D
330
119
100
AcDbEntity
  8
2
 62
     7
420
 16777215
100
AcDbTrace
 10
-0.0001630015
 20
37.7782030286
 30
0.0
 11
3.3018369985
 21
37.2702030286
 31
0.0
 12
3.3018369985
 22
38.2862030286
 32
0.0
 13
3.3018369985
 23
38.2862030286
 33
0.0
  0
LINE
  5
11E
330
119
100
AcDbEntity
  8
2
 62
     7
420
 16777215
100
AcDbLine
 10
99.9998369985
 20
1.0032030286
 30
0.0
 11
99.9998369985
 21
38.7782030286
 31
0.0
  0
LINE
  5
11F
330
119
100
AcDbEntity
  8
2
 62
     7
420
 16777215
100
AcDbLine
 10
-0.0001630015
 20
1.0032030286
 30
0.0
 11
-0.0001630015
 21
38.7782030286
 31
0.0
  0
LINE
  5
120
330
119
100
AcDbEntity
  8
2
 62
     7
420
 16777215
100
AcDbLine
 10
99.9998369985
 20
37.7782030286
 30
0.0
 11
-0.0001630015
 21
37.7782030286
 31
0.0
  0
MTEXT
  5
121
330
119
100
AcDbEntity
  8
2
 62
     7
420
 16777215
100
AcDbMText
 10
46.1206703246
 20
42.2899399432
 30
0.0
 40
3.5
 41
0.0
 71
     1
 72
     1
  1
100
  7
SLDTEXTSTYLE0
 73
     1
 44
1.0
  0
ENDBLK
  5
11B
330
119
100
AcDbEntity
  8
0
100
AcDbBlockEnd
  0
BLOCK
  5
125
330
124
100
AcDbEntity
  8
0
100
AcDbBlockBegin
  2
_D_2
 70
     0
 10
0.0
 20
0.0
 30
0.0
  3
_D_2
  1

  0
SOLID
  5
127
330
124
100
AcDbEntity
  8
2
  6
SLD-Durchgehend
 62
   208
420
  4194368
370
    15
100
AcDbTrace
 10
105.9998369985
 20
3.0032030286
 30
0.0
 11
106.5078369985
 21
6.3052030286
 31
0.0
 12
105.4918369985
 22
6.3052030286
 32
0.0
 13
105.4918369985
 23
6.3052030286
 33
0.0
  0
SOLID
  5
128
330
124
100
AcDbEntity
  8
2
  6
SLD-Durchgehend
 62
   208
420
  4194368
370
    15
100
AcDbTrace
 10
105.9998369985
 20
-2.9967969714
 30
0.0
 11
105.4918369985
 21
-6.2987969714
 31
0.0
 12
106.5078369985
 22
-6.2987969714
 32
0.0
 13
106.5078369985
 23
-6.2987969714
 33
0.0
  0
LINE
  5
129
330
124
100
AcDbEntity
  8
2
  6
SLD-Durchgehend
 62
   208
420
  4194368
370
    15
100
AcDbLine
 10
100.4998369985
 20
3.0032030286
 30
0.0
 11
106.9998369985
 21
3.0032030286
 31
0.0
  0
LINE
  5
12A
330
124
100
AcDbEntity
  8
2
  6
SLD-Durchgehend
 62
   208
420
  4194368
370
    15
100
AcDbLine
 10
100.4998369985
 20
-2.9967969714
 30
0.0
 11
106.9998369985
 21
-2.9967969714
 31
0.0
  0
LINE
  5
12B
330
124
100
AcDbEntity
  8
2
  6
SLD-Durchgehend
 62
   208
420
  4194368
370
    15
100
AcDbLine
 10
105.9998369985
 20
3.0032030286
 30
0.0
 11
105.9998369985
 21
8.0032030286
 31
0.0
  0
LINE
  5
12C
330
124
100
AcDbEntity
  8
2
  6
SLD-Durchgehend
 62
   208
420
  4194368
370
    15
100
AcDbLine
 10
105.9998369985
 20
3.0032030286
 30
0.0
 11
105.9998369985
 21
-2.9967969714
 31
0.0
  0
LINE
  5
12D
330
124
100
AcDbEntity
  8
2
  6
SLD-Durchgehend
 62
   208
420
  4194368
370
    15
100
AcDbLine
 10
105.9998369985
 20
-2.9967969714
 30
0.0
 11
105.9998369985
 21
-17.1544015093
 31
0.0
  0
MTEXT
  5
12E
330
124
100
AcDbEntity
  8
2
  6
SLD-Durchgehend
 62
   208
420
  4194368
370
    15
100
AcDbMText
 10
101.4880999093
 20
-17.1544015093
 30
0.0
 40
3.5
 41
0.0
 71
     1
 72
     1
  1
%%c
  7
SLDTEXTSTYLE0
 11
-7.044195017643634E-15
 21
1.0
 31
0.0
 73
     1
 44
1.0
  0
MTEXT
  5
12F
330
124
100
AcDbEntity
  8
2
  6
SLD-Durchgehend
 62
   208
420
  4194368
370
    15
100
AcDbMText
 10
101.4346277326
 20
-11.8759641109
 30
0.0
 40
3.5
 41
0.0
 71
     1
 72
     1
  1
6
  7
SLDTEXTSTYLE0
 11
-7.044195017643634E-15
 21
1.0
 31
0.0
 73
     1
 44
1.0
  0
ENDBLK
  5
126
330
124
100
AcDbEntity
  8
0
100
AcDbBlockEnd
  0
BLOCK
  5
132
330
131
100
AcDbEntity
  8
0
100
AcDbBlockBegin
  2
_D_3
 70
     0
 10
0.0
 20
0.0
 30
0.0
  3
_D_3
  1

  0
SOLID
  5
134
330
131
100
AcDbEntity
  8
2
  6
SLD-Durchgehend
 62
   208
420
  4194368
370
    15
100
AcDbTrace
 10
117.9998369985
 20
12.5032030286
 30
0.0
 11
117.4918369985
 21
9.2012030286
 31
0.0
 12
118.5078369985
 22
9.2012030286
 32
0.0
 13
118.5078369985
 23
9.2012030286
 33
0.0
  0
SOLID
  5
135
330
131
100
AcDbEntity
  8
2
  6
SLD-Durchgehend
 62
   208
420
  4194368
370
    15
100
AcDbTrace
 10
117.9998369985
 20
-12.4967969714
 30
0.0
 11
118.5078369985
 21
-9.1947969714
 31
0.0
 12
117.4918369985
 22
-9.1947969714
 32
0.0
 13
117.4918369985
 23
-9.1947969714
 33
0.0
  0
LINE
  5
136
330
131
100
AcDbEntity
  8
2
  6
SLD-Durchgehend
 62
   208
420
  4194368
370
    15
100
AcDbLine
 10
90.277302396
 20
12.5032030286
 30
0.0
 11
118.9998369985
 21
12.5032030286
 31
0.0
  0
LINE
  5
137
330
131
100
AcDbEntity
  8
2
  6
SLD-Durchgehend
 62
   208
420
  4194368
370
    15
100
AcDbLine
 10
90.277302396
 20
-12.4967969714
 30
0.0
 11
118.9998369985
 21
-12.4967969714
 31
0.0
  0
LINE
  5
138
330
131
100
AcDbEntity
  8
2
  6
SLD-Durchgehend
 62
   208
420
  4194368
370
    15
100
AcDbLine
 10
117.9998369985
 20
12.5032030286
 30
0.0
 11
117.9998369985
 21
-12.4967969714
 31
0.0
  0
MTEXT
  5
139
330
131
100
AcDbEntity
  8
2
  6
SLD-Durchgehend
 62
   208
420
  4194368
370
    15
100
AcDbMText
 10
113.4880999093
 20
-5.2221270969
 30
0.0
 40
3.5
 41
0.0
 71
     1
 72
     1
  1
%%c
  7
SLDTEXTSTYLE0
 11
-7.044195017643634E-15
 21
1.0
 31
0.0
 73
     1
 44
1.0
  0
MTEXT
  5
13A
330
131
100
AcDbEntity
  8
2
  6
SLD-Durchgehend
 62
   208
420
  4194368
370
    15
100
AcDbMText
 10
113.4346277326
 20
0.0563103015
 30
0.0
 40
3.5
 41
0.0
 71
     1
 72
     1
  1
25
  7
SLDTEXTSTYLE0
 11
-7.044195017643634E-15
 21
1.0
 31
0.0
 73
     1
 44
1.0
  0
ENDBLK
  5
133
330
131
100
AcDbEntity
  8
0
100
AcDbBlockEnd
  0
ENDSEC
  0
SECTION
  2
ENTITIES
  0
LINE
  5
78
330
1F
100
AcDbEntity
  8
0
  6
SLD-Punktstrich
 62
     7
100
AcDbLine
 10
-68.4001630015
 20
0.0032030286
 30
0.0
 11
99.9998369985
 21
0.0032030286
 31
0.0
  0
POINT
  5
79
330
1F
100
AcDbEntity
  8
1
 62
     4
420
    65535
100
AcDbPoint
 10
-0.0001630015
 20
0.0032030286
 30
0.0
  0
POINT
  5
7A
330
1F
100
AcDbEntity
  8
1
 62
     4
420
    65535
100
AcDbPoint
 10
79.9998369985
 20
0.0032030286
 30
0.0
  0
POINT
  5
7B
330
1F
100
AcDbEntity
  8
1
 62
     4
420
    65535
100
AcDbPoint
 10
99.9998369985
 20
0.0032030286
 30
0.0
  0
LINE
  5
7C
330
1F
100
AcDbEntity
  8
1
 62
     4
420
    65535
100
AcDbLine
 10
3.1998369985
 20
-31.7717969714
 30
0.0
 11
7.5635665997
 21
-31.7717969714
 31
0.0
  0
LINE
  5
7D
330
1F
100
AcDbEntity
  8
1
 62
     4
420
    65535
100
AcDbLine
 10
7.5635665997
 20
31.7782030286
 30
0.0
 11
3.1998369985
 21
31.7782030286
 31
0.0
  0
LINE
  5
7E
330
1F
100
AcDbEntity
  8
1
 62
     4
420
    65535
100
AcDbLine
 10
19.0998369985
 20
31.7782030286
 30
0.0
 11
14.6361073973
 21
31.7782030286
 31
0.0
  0
LINE
  5
7F
330
1F
100
AcDbEntity
  8
1
 62
     4
420
    65535
100
AcDbLine
 10
14.6361073973
 20
-31.7717969714
 30
0.0
 11
19.0998369985
 21
-31.7717969714
 31
0.0
  0
LINE
  5
80
330
1F
100
AcDbEntity
  8
1
 62
     4
420
    65535
100
AcDbLine
 10
12.9748369985
 20
-28.8943922356
 30
0.0
 11
14.6361073973
 21
-31.7717969714
 31
0.0
  0
LINE
  5
81
330
1F
100
AcDbEntity
  8
1
 62
     4
420
    65535
100
AcDbLine
 10
14.6361073973
 20
31.7782030286
 30
0.0
 11
12.9748369985
 21
28.9007982928
 31
0.0
  0
LINE
  5
82
330
1F
100
AcDbEntity
  8
1
 62
     4
420
    65535
100
AcDbLine
 10
7.5635665997
 20
-31.7717969714
 30
0.0
 11
9.2248369985
 21
-28.8943922356
 31
0.0
  0
LINE
  5
83
330
1F
100
AcDbEntity
  8
1
 62
     4
420
    65535
100
AcDbLine
 10
9.2248369985
 20
28.9007982928
 30
0.0
 11
7.5635665997
 21
31.7782030286
 31
0.0
  0
ARC
  5
84
330
1F
100
AcDbEntity
  8
1
 62
     4
420
    65535
100
AcDbCircle
 10
9.4248369985
 20
28.3282030286
 30
0.0
 40
0.1999999999999993
100
AcDbArc
 50
180.0
 51
270.0
  0
ARC
  5
85
330
1F
100
AcDbEntity
  8
1
 62
     4
420
    65535
100
AcDbCircle
 10
12.7748369985
 20
-28.3217969714
 30
0.0
 40
0.1999999999999993
100
AcDbArc
 50
0.0
 51
90.0
  0
ARC
  5
86
330
1F
100
AcDbEntity
  8
1
 62
     4
420
    65535
100
AcDbCircle
 10
9.4248369985
 20
-28.3217969714
 30
0.0
 40
0.1999999999999993
100
AcDbArc
 50
90.0
 51
180.0
  0
ARC
  5
87
330
1F
100
AcDbEntity
  8
1
 62
     4
420
    65535
100
AcDbCircle
 10
12.7748369985
 20
28.3282030286
 30
0.0
 40
0.1999999999999993
100
AcDbArc
 50
270.0
 51
0.0
  0
LINE
  5
88
330
1F
100
AcDbEntity
  8
1
 62
     4
420
    65535
100
AcDbLine
 10
12.7748369985
 20
28.1282030286
 30
0.0
 11
9.4248369985
 21
28.1282030286
 31
0.0
  0
LINE
  5
89
330
1F
100
AcDbEntity
  8
1
 62
     4
420
    65535
100
AcDbLine
 10
9.4248369985
 20
-28.1217969714
 30
0.0
 11
12.7748369985
 21
-28.1217969714
 31
0.0
  0
LINE
  5
8A
330
1F
100
AcDbEntity
  8
1
 62
     4
420
    65535
100
AcDbLine
 10
1.5998369985
 20
22.4567715406
 30
0.0
 11
-67.3698665068
 21
12.6040824772
 31
0.0
  0
LINE
  5
8B
330
1F
100
AcDbEntity
  8
1
 62
     4
420
    65535
100
AcDbLine
 10
-67.3698665068
 20
-12.5976764199
 30
0.0
 11
1.5998369985
 21
-22.4503654833
 31
0.0
  0
ARC
  5
8C
330
1F
100
AcDbEntity
  8
1
 62
     4
420
    65535
100
AcDbCircle
 10
3.0998369985
 20
-22.4303654833
 30
0.0
 40
0.1000000000000028
100
AcDbArc
 50
0.0
 51
90.0
  0
ARC
  5
8D
330
1F
100
AcDbEntity
  8
1
 62
     4
420
    65535
100
AcDbCircle
 10
3.0998369985
 20
22.4367715406
 30
0.0
 40
0.100000000000005
100
AcDbArc
 50
270.0
 51
0.0
  0
ARC
  5
8E
330
1F
100
AcDbEntity
  8
1
 62
     4
420
    65535
100
AcDbCircle
 10
1.6998369985
 20
-22.4303654833
 30
0.0
 40
0.100000000000005
100
AcDbArc
 50
90.0
 51
180.0
  0
ARC
  5
8F
330
1F
100
AcDbEntity
  8
1
 62
     4
420
    65535
100
AcDbCircle
 10
1.6998369985
 20
22.4367715406
 30
0.0
 40
0.100000000000005
100
AcDbArc
 50
180.0
 51
270.0
  0
LINE
  5
90
330
1F
100
AcDbEntity
  8
1
 62
     4
420
    65535
100
AcDbLine
 10
1.6998369985
 20
-22.3303654833
 30
0.0
 11
3.0998369985
 21
-22.3303654833
 31
0.0
  0
LINE
  5
91
330
1F
100
AcDbEntity
  8
1
 62
     4
420
    65535
100
AcDbLine
 10
3.0998369985
 20
22.3367715406
 30
0.0
 11
1.6998369985
 21
22.3367715406
 31
0.0
  0
ARC
  5
92
330
1F
100
AcDbEntity
  8
1
 62
     4
420
    65535
100
AcDbCircle
 10
28.7998369985
 20
-22.2167969714
 30
0.0
 40
9.720000000000008
100
AcDbArc
 50
90.0
 51
176.3238435043
  0
ARC
  5
93
330
1F
100
AcDbEntity
  8
1
 62
     4
420
    65535
100
AcDbCircle
 10
28.7998369985
 20
22.2232030286
 30
0.0
 40
9.720000000000002
100
AcDbArc
 50
183.6761564957
 51
270.0
  0
ARC
  5
94
330
1F
100
AcDbEntity
  8
1
 62
     4
420
    65535
100
AcDbCircle
 10
-67.2001630015
 20
-11.4097367244
 30
0.0
 40
1.199999999999999
100
AcDbArc
 50
180.0
 51
261.87
  0
ARC
  5
95
330
1F
100
AcDbEntity
  8
1
 62
     4
420
    65535
100
AcDbCircle
 10
-67.2001630015
 20
11.4161427817
 30
0.0
 40
1.199999999999999
100
AcDbArc
 50
98.13
 51
180.0
  0
LINE
  5
96
330
1F
100
AcDbEntity
  8
1
 62
     4
420
    65535
100
AcDbLine
 10
89.277302396
 20
-12.4967969714
 30
0.0
 11
99.9998369985
 21
-7.4967969714
 31
0.0
  0
LINE
  5
97
330
1F
100
AcDbEntity
  8
1
 62
     4
420
    65535
100
AcDbLine
 10
99.9998369985
 20
7.5032030286
 30
0.0
 11
89.277302396
 21
12.5032030286
 31
0.0
  0
LINE
  5
98
330
1F
100
AcDbEntity
  8
1
 62
     4
420
    65535
100
AcDbLine
 10
28.7998369985
 20
-12.4967969714
 30
0.0
 11
89.277302396
 21
-12.4967969714
 31
0.0
  0
LINE
  5
99
330
1F
100
AcDbEntity
  8
1
 62
     4
420
    65535
100
AcDbLine
 10
78.0541094078
 20
12.5032030286
 30
0.0
 11
28.7998369985
 21
12.5032030286
 31
0.0
  0
LINE
  5
9A
330
1F
100
AcDbEntity
  8
1
 62
     4
420
    65535
100
AcDbLine
 10
89.277302396
 20
12.5032030286
 30
0.0
 11
85.9998369985
 21
12.5032030286
 31
0.0
  0
LINE
  5
9B
330
1F
100
AcDbEntity
  8
1
 62
     4
420
    65535
100
AcDbLine
 10
7.5635665997
 20
-8.0467969714
 30
0.0
 11
3.1998369985
 21
-8.0467969714
 31
0.0
  0
LINE
  5
9C
330
1F
100
AcDbEntity
  8
1
 62
     4
420
    65535
100
AcDbLine
 10
7.5635665997
 20
-31.7717969714
 30
0.0
 11
7.5635665997
 21
-8.0467969714
 31
0.0
  0
LINE
  5
9D
330
1F
100
AcDbEntity
  8
1
 62
     4
420
    65535
100
AcDbLine
 10
3.1998369985
 20
-31.7717969714
 30
0.0
 11
3.1998369985
 21
-8.0467969714
 31
0.0
  0
LINE
  5
9E
330
1F
100
AcDbEntity
  8
1
 62
     4
420
    65535
100
AcDbLine
 10
7.5635665997
 20
8.0532030286
 30
0.0
 11
7.5635665997
 21
31.7782030286
 31
0.0
  0
LINE
  5
9F
330
1F
100
AcDbEntity
  8
1
 62
     4
420
    65535
100
AcDbLine
 10
3.1998369985
 20
8.0532030286
 30
0.0
 11
7.5635665997
 21
8.0532030286
 31
0.0
  0
LINE
  5
A0
330
1F
100
AcDbEntity
  8
1
 62
     4
420
    65535
100
AcDbLine
 10
3.1998369985
 20
8.0532030286
 30
0.0
 11
3.1998369985
 21
31.7782030286
 31
0.0
  0
LINE
  5
A1
330
1F
100
AcDbEntity
  8
1
 62
     4
420
    65535
100
AcDbLine
 10
14.6361073973
 20
8.0532030286
 30
0.0
 11
14.6361073973
 21
31.7782030286
 31
0.0
  0
LINE
  5
A2
330
1F
100
AcDbEntity
  8
1
 62
     4
420
    65535
100
AcDbLine
 10
14.6361073973
 20
8.0532030286
 30
0.0
 11
19.0998369985
 21
8.0532030286
 31
0.0
  0
LINE
  5
A3
330
1F
100
AcDbEntity
  8
1
 62
     4
420
    65535
100
AcDbLine
 10
19.0998369985
 20
8.0532030286
 30
0.0
 11
19.0998369985
 21
31.7782030286
 31
0.0
  0
LINE
  5
A4
330
1F
100
AcDbEntity
  8
1
 62
     4
420
    65535
100
AcDbLine
 10
14.6361073973
 20
-31.7717969714
 30
0.0
 11
14.6361073973
 21
-8.0467969714
 31
0.0
  0
LINE
  5
A5
330
1F
100
AcDbEntity
  8
1
 62
     4
420
    65535
100
AcDbLine
 10
19.0998369985
 20
-8.0467969714
 30
0.0
 11
14.6361073973
 21
-8.0467969714
 31
0.0
  0
LINE
  5
A6
330
1F
100
AcDbEntity
  8
1
 62
     4
420
    65535
100
AcDbLine
 10
19.0998369985
 20
-31.7717969714
 30
0.0
 11
19.0998369985
 21
-8.0467969714
 31
0.0
  0
LINE
  5
A7
330
1F
100
AcDbEntity
  8
1
 62
     4
420
    65535
100
AcDbLine
 10
12.9748369985
 20
-28.8943922356
 30
0.0
 11
12.9748369985
 21
-8.0467969714
 31
0.0
  0
SPLINE
  5
A8
330
1F
100
AcDbEntity
  8
1
 62
     4
420
    65535
100
AcDbSpline
210
0.0
220
0.0
230
1.0
 70
    24
 71
     3
 72
     8
 73
     4
 74
     0
 42
0.000000001
 43
0.00000001
 40
0.0
 40
0.0
 40
0.0
 40
0.0
 40
1.0
 40
1.0
 40
1.0
 40
1.0
 10
14.63610739729004
 20
-8.04679697136146
 30
0.0
 10
14.0809002408603
 20
-8.04679697136146
 30
0.0
 10
13.52698837824183
 20
-8.04679697136146
 30
0.0
 10
12.97483699850359
 20
-8.04679697136146
 30
0.0
  0
LINE
  5
A9
330
1F
100
AcDbEntity
  8
1
 62
     4
420
    65535
100
AcDbLine
 10
12.9748369985
 20
8.0532030286
 30
0.0
 11
12.9748369985
 21
28.9007982928
 31
0.0
  0
SPLINE
  5
AA
330
1F
100
AcDbEntity
  8
1
 62
     4
420
    65535
100
AcDbSpline
210
0.0
220
0.0
230
1.0
 70
    24
 71
     3
 72
     8
 73
     4
 74
     0
 42
0.000000001
 43
0.00000001
 40
0.0
 40
0.0
 40
0.0
 40
0.0
 40
1.0
 40
1.0
 40
1.0
 40
1.0
 10
12.97483699850359
 20
8.053203028638546
 30
0.0
 10
13.52698837824183
 20
8.053203028638546
 30
0.0
 10
14.0809002408603
 20
8.053203028638546
 30
0.0
 10
14.63610739729004
 20
8.053203028638546
 30
0.0
  0
LINE
  5
AB
330
1F
100
AcDbEntity
  8
1
 62
     4
420
    65535
100
AcDbLine
 10
9.2248369985
 20
-28.8943922356
 30
0.0
 11
9.2248369985
 21
-8.0467969714
 31
0.0
  0
SPLINE
  5
AC
330
1F
100
AcDbEntity
  8
1
 62
     4
420
    65535
100
AcDbSpline
210
0.0
220
0.0
230
1.0
 70
    24
 71
     3
 72
     8
 73
     4
 74
     0
 42
0.000000001
 43
0.00000001
 40
0.0
 40
0.0
 40
0.0
 40
0.0
 40
1.0
 40
1.0
 40
1.0
 40
1.0
 10
9.224836998503585
 20
-8.046796971361458
 30
0.0
 10
8.672685618765351
 20
-8.046796971361458
 30
0.0
 10
8.118773756146878
 20
-8.046796971361458
 30
0.0
 10
7.563566599717145
 20
-8.046796971361458
 30
0.0
  0
LINE
  5
AD
330
1F
100
AcDbEntity
  8
1
 62
     4
420
    65535
100
AcDbLine
 10
9.2248369985
 20
8.0532030286
 30
0.0
 11
9.2248369985
 21
28.9007982928
 31
0.0
  0
SPLINE
  5
AE
330
1F
100
AcDbEntity
  8
1
 62
     4
420
    65535
100
AcDbSpline
210
0.0
220
0.0
230
1.0
 70
    24
 71
     3
 72
     8
 73
     4
 74
     0
 42
0.000000001
 43
0.00000001
 40
0.0
 40
0.0
 40
0.0
 40
0.0
 40
1.0
 40
1.0
 40
1.0
 40
1.0
 10
7.563566599717145
 20
8.053203028638544
 30
0.0
 10
8.118773756146885
 20
8.053203028638544
 30
0.0
 10
8.672685618765351
 20
8.053203028638544
 30
0.0
 10
9.224836998503585
 20
8.053203028638544
 30
0.0
  0
SPLINE
  5
AF
330
1F
100
AcDbEntity
  8
1
 62
     4
420
    65535
100
AcDbSpline
210
0.0
220
0.0
230
1.0
 70
    24
 71
     3
 72
    10
 73
     6
 74
     0
 42
0.000000001
 43
0.00000001
 40
0.0
 40
0.0
 40
0.0
 40
0.0
 40
0.5
 40
0.5
 40
1.0
 40
1.0
 40
1.0
 40
1.0
 10
9.224836998503585
 20
8.053203028638544
 30
0.0
 10
9.224836998504147
 20
8.053203028638542
 30
0.0
 10
9.245259801940874
 20
8.053203028638544
 30
0.0
 10
9.318306864996941
 20
8.053203028638544
 30
0.0
 10
9.371598128193103
 20
8.053203028638546
 30
0.0
 10
9.424836998503592
 20
8.053203028638544
 30
0.0
  0
SPLINE
  5
B0
330
1F
100
AcDbEntity
  8
1
 62
     4
420
    65535
100
AcDbSpline
210
0.0
220
0.0
230
1.0
 70
    24
 71
     3
 72
    10
 73
     6
 74
     0
 42
0.000000001
 43
0.00000001
 40
0.0
 40
0.0
 40
0.0
 40
0.0
 40
0.5
 40
0.5
 40
1.0
 40
1.0
 40
1.0
 40
1.0
 10
12.97483699850359
 20
-8.04679697136146
 30
0.0
 10
12.9748369985036
 20
-8.04679697136146
 30
0.0
 10
12.95429835369342
 20
-8.04679697136146
 30
0.0
 10
12.88135669929006
 20
-8.04679697136146
 30
0.0
 10
12.82883667588256
 20
-8.04679697136146
 30
0.0
 10
12.7748369985036
 20
-8.04679697136146
 30
0.0
  0
SPLINE
  5
B1
330
1F
100
AcDbEntity
  8
1
 62
     4
420
    65535
100
AcDbSpline
210
0.0
220
0.0
230
1.0
 70
    24
 71
     3
 72
    10
 73
     6
 74
     0
 42
0.000000001
 43
0.00000001
 40
0.0
 40
0.0
 40
0.0
 40
0.0
 40
0.5
 40
0.5
 40
1.0
 40
1.0
 40
1.0
 40
1.0
 10
9.424836998503592
 20
-8.046796971361458
 30
0.0
 10
9.370958673547438
 20
-8.046796971361456
 30
0.0
 10
9.318658928992702
 20
-8.046796971361458
 30
0.0
 10
9.24513112203766
 20
-8.046796971361458
 30
0.0
 10
9.224836998503585
 20
-8.04679697136146
 30
0.0
 10
9.224836998503585
 20
-8.046796971361458
 30
0.0
  0
SPLINE
  5
B2
330
1F
100
AcDbEntity
  8
1
 62
     4
420
    65535
100
AcDbSpline
210
0.0
220
0.0
230
1.0
 70
    24
 71
     3
 72
    10
 73
     6
 74
     0
 42
0.000000001
 43
0.00000001
 40
0.0
 40
0.0
 40
0.0
 40
0.0
 40
0.5
 40
0.5
 40
1.0
 40
1.0
 40
1.0
 40
1.0
 10
12.7748369985074
 20
8.053203028638546
 30
0.0
 10
12.82807092222889
 20
8.053203028638546
 30
0.0
 10
12.88147935799235
 20
8.053203028638546
 30
0.0
 10
12.95427900283184
 20
8.053203028638546
 30
0.0
 10
12.9748369985036
 20
8.053203028638546
 30
0.0
 10
12.9748369985036
 20
8.053203028638546
 30
0.0
  0
LINE
  5
B3
330
1F
100
AcDbEntity
  8
1
 62
     4
420
    65535
100
AcDbLine
 10
9.4248369985
 20
8.0532030286
 30
0.0
 11
12.7748369985
 21
8.0532030286
 31
0.0
  0
LINE
  5
B4
330
1F
100
AcDbEntity
  8
1
 62
     4
420
    65535
100
AcDbLine
 10
12.7748369985
 20
-8.0467969714
 30
0.0
 11
9.4248369985
 21
-8.0467969714
 31
0.0
  0
LINE
  5
B5
330
1F
100
AcDbEntity
  8
1
 62
     4
420
    65535
100
AcDbLine
 10
19.0998369985
 20
7.5532030286
 30
0.0
 11
3.1998369985
 21
7.5532030286
 31
0.0
  0
LINE
  5
B6
330
1F
100
AcDbEntity
  8
1
 62
     4
420
    65535
100
AcDbLine
 10
3.1998369985
 20
7.5532030286
 30
0.0
 11
3.1998369985
 21
8.0532030286
 31
0.0
  0
LINE
  5
B7
330
1F
100
AcDbEntity
  8
1
 62
     4
420
    65535
100
AcDbLine
 10
19.0998369985
 20
8.0532030286
 30
0.0
 11
19.0998369985
 21
7.5532030286
 31
0.0
  0
LINE
  5
B8
330
1F
100
AcDbEntity
  8
1
 62
     4
420
    65535
100
AcDbLine
 10
3.1998369985
 20
-7.5467969714
 30
0.0
 11
19.0998369985
 21
-7.5467969714
 31
0.0
  0
LINE
  5
B9
330
1F
100
AcDbEntity
  8
1
 62
     4
420
    65535
100
AcDbLine
 10
3.1998369985
 20
-8.0467969714
 30
0.0
 11
3.1998369985
 21
-7.5467969714
 31
0.0
  0
LINE
  5
BA
330
1F
100
AcDbEntity
  8
1
 62
     4
420
    65535
100
AcDbLine
 10
19.0998369985
 20
-7.5467969714
 30
0.0
 11
19.0998369985
 21
-8.0467969714
 31
0.0
  0
LINE
  5
BB
330
1F
100
AcDbEntity
  8
1
 62
     4
420
    65535
100
AcDbLine
 10
3.1998369985
 20
-7.5467969714
 30
0.0
 11
3.1998369985
 21
7.5532030286
 31
0.0
  0
LINE
  5
BC
330
1F
100
AcDbEntity
  8
1
 62
     4
420
    65535
100
AcDbLine
 10
19.0998369985
 20
7.5532030286
 30
0.0
 11
19.0998369985
 21
-7.5467969714
 31
0.0
  0
LINE
  5
BD
330
1F
100
AcDbEntity
  8
1
 62
     4
420
    65535
100
AcDbLine
 10
1.5998369985
 20
0.0032030286
 30
0.0
 11
1.5998369985
 21
22.4567715406
 31
0.0
  0
LINE
  5
BE
330
1F
100
AcDbEntity
  8
1
 62
     4
420
    65535
100
AcDbLine
 10
1.5998369985
 20
-22.4503654833
 30
0.0
 11
1.5998369985
 21
0.0032030286
 31
0.0
  0
LINE
  5
BF
330
1F
100
AcDbEntity
  8
1
 62
     4
420
    65535
100
AcDbLine
 10
-68.4001630015
 20
0.0032030286
 30
0.0
 11
-68.4001630015
 21
11.4161427817
 31
0.0
  0
LINE
  5
C0
330
1F
100
AcDbEntity
  8
1
 62
     4
420
    65535
100
AcDbLine
 10
-68.4001630015
 20
-11.4097367244
 30
0.0
 11
-68.4001630015
 21
0.0032030286
 31
0.0
  0
LINE
  5
C1
330
1F
100
AcDbEntity
  8
1
 62
     4
420
    65535
100
AcDbLine
 10
99.9998369985
 20
0.0032030286
 30
0.0
 11
99.9998369985
 21
7.5032030286
 31
0.0
  0
LINE
  5
C2
330
1F
100
AcDbEntity
  8
1
 62
     4
420
    65535
100
AcDbLine
 10
99.9998369985
 20
-7.4967969714
 30
0.0
 11
99.9998369985
 21
0.0032030286
 31
0.0
  0
LINE
  5
C3
330
1F
100
AcDbEntity
  8
1
 62
     4
420
    65535
100
AcDbLine
 10
89.277302396
 20
0.0032030286
 30
0.0
 11
89.277302396
 21
12.5032030286
 31
0.0
  0
LINE
  5
C4
330
1F
100
AcDbEntity
  8
1
 62
     4
420
    65535
100
AcDbLine
 10
89.277302396
 20
-12.4967969714
 30
0.0
 11
89.277302396
 21
0.0032030286
 31
0.0
  0
SPLINE
  5
C5
330
1F
100
AcDbEntity
  8
1
 62
     4
420
    65535
100
AcDbSpline
210
0.0
220
0.0
230
1.0
 70
     8
 71
     3
 72
    17
 73
    13
 74
     0
 42
0.000000001
 43
0.00000001
 40
0.0
 40
0.0
 40
0.0
 40
0.0
 40
0.1037424541538316
 40
0.2073697849429021
 40
0.3140227967673969
 40
0.4234103620748067
 40
0.5293254114233
 40
0.6308617122708106
 40
0.7339781984281084
 40
0.8420201860329322
 40
0.9509281215710753
 40
1.0
 40
1.0
 40
1.0
 40
1.0
 10
85.9998369985036
 20
12.50320302863854
 30
0.0
 10
85.95783711577396
 20
12.48943854843184
 30
0.0
 10
85.87388395773164
 20
12.46192486251033
 30
0.0
 10
85.22205814780826
 20
12.26813183384746
 30
0.0
 10
84.24612150371208
 20
12.04002351859063
 30
0.0
 10
82.99306523897127
 20
11.86209587871428
 30
0.0
 10
81.6393429055659
 20
11.82653229220973
 30
0.0
 10
80.36020401097969
 20
11.9392027380936
 30
0.0
 10
79.24883223999997
 20
12.1489532367249
 30
0.0
 10
78.43250664023215
 20
12.3660719600125
 30
0.0
 10
78.00593618356639
 20
12.50119622428964
 30
0.0
 10
78.04269220771208
 20
12.48955833278361
 30
0.0
 10
78.05410940781576
 20
12.48594335702935
 30
0.0
  0
LINE
  5
C6
330
1F
100
AcDbEntity
  8
1
 62
     4
420
    65535
100
AcDbLine
 10
9.4248369985
 20
8.0532030286
 30
0.0
 11
9.4248369985
 21
28.1282030286
 31
0.0
  0
LINE
  5
C7
330
1F
100
AcDbEntity
  8
1
 62
     4
420
    65535
100
AcDbLine
 10
12.7748369985
 20
-28.1217969714
 30
0.0
 11
12.7748369985
 21
-8.0467969714
 31
0.0
  0
LINE
  5
C8
330
1F
100
AcDbEntity
  8
1
 62
     4
420
    65535
100
AcDbLine
 10
9.4248369985
 20
-28.1217969714
 30
0.0
 11
9.4248369985
 21
-8.0467969714
 31
0.0
  0
LINE
  5
C9
330
1F
100
AcDbEntity
  8
1
 62
     4
420
    65535
100
AcDbLine
 10
12.7748369985
 20
8.0532030286
 30
0.0
 11
12.7748369985
 21
28.1282030286
 31
0.0
  0
LINE
  5
CA
330
1F
100
AcDbEntity
  8
1
 62
     4
420
    65535
100
AcDbLine
 10
-67.3698665068
 20
0.0032030286
 30
0.0
 11
-67.3698665068
 21
12.6040824772
 31
0.0
  0
LINE
  5
CB
330
1F
100
AcDbEntity
  8
1
 62
     4
420
    65535
100
AcDbLine
 10
-67.3698665068
 20
-12.5976764199
 30
0.0
 11
-67.3698665068
 21
0.0032030286
 31
0.0
  0
LINE
  5
CC
330
1F
100
AcDbEntity
  8
1
 62
     4
420
    65535
100
AcDbLine
 10
3.0998369985
 20
0.0032030286
 30
0.0
 11
3.0998369985
 21
22.3367715406
 31
0.0
  0
LINE
  5
CD
330
1F
100
AcDbEntity
  8
1
 62
     4
420
    65535
100
AcDbLine
 10
3.0998369985
 20
-22.3303654833
 30
0.0
 11
3.0998369985
 21
0.0032030286
 31
0.0
  0
LINE
  5
CE
330
1F
100
AcDbEntity
  8
1
 62
     4
420
    65535
100
AcDbLine
 10
1.6998369985
 20
0.0032030286
 30
0.0
 11
1.6998369985
 21
22.3367715406
 31
0.0
  0
LINE
  5
CF
330
1F
100
AcDbEntity
  8
1
 62
     4
420
    65535
100
AcDbLine
 10
1.6998369985
 20
-22.3303654833
 30
0.0
 11
1.6998369985
 21
0.0032030286
 31
0.0
  0
LINE
  5
D0
330
1F
100
AcDbEntity
  8
1
 62
     4
420
    65535
100
AcDbLine
 10
28.7998369985
 20
0.0032030286
 30
0.0
 11
28.7998369985
 21
12.5032030286
 31
0.0
  0
LINE
  5
D1
330
1F
100
AcDbEntity
  8
1
 62
     4
420
    65535
100
AcDbLine
 10
28.7998369985
 20
-12.4967969714
 30
0.0
 11
28.7998369985
 21
0.0032030286
 31
0.0
  0
LINE
  5
D2
330
1F
100
AcDbEntity
  8
1
  6
SLD-Gestrichelt
 62
   131
420
  8454143
370
     0
100
AcDbLine
 10
3.1998369985
 20
25.8373011356
 30
0.0
 11
7.5635665997
 21
25.8373011356
 31
0.0
  0
LINE
  5
D3
330
1F
100
AcDbEntity
  8
1
  6
SLD-Gestrichelt
 62
   131
420
  8454143
370
     0
100
AcDbLine
 10
14.6361073973
 20
25.8373011356
 30
0.0
 11
19.0998369985
 21
25.8373011356
 31
0.0
  0
SPLINE
  5
D4
330
1F
100
AcDbEntity
  8
1
  6
SLD-Gestrichelt
 62
   131
420
  8454143
370
     0
100
AcDbSpline
210
0.0
220
0.0
230
1.0
 70
     8
 71
     3
 72
     8
 73
     4
 74
     0
 42
0.000000001
 43
0.00000001
 40
0.0
 40
0.0
 40
0.0
 40
0.0
 40
1.0
 40
1.0
 40
1.0
 40
1.0
 10
12.97483699850359
 20
22.20277536805608
 30
0.0
 10
13.51462543594521
 20
23.41980541582217
 30
0.0
 10
14.07014612147782
 20
24.63160019700507
 30
0.0
 10
14.63610739729004
 20
25.83730113559788
 30
0.0
  0
SPLINE
  5
D5
330
1F
100
AcDbEntity
  8
1
  6
SLD-Gestrichelt
 62
   131
420
  8454143
370
     0
100
AcDbSpline
210
0.0
220
0.0
230
1.0
 70
     8
 71
     3
 72
     8
 73
     4
 74
     0
 42
0.000000001
 43
0.00000001
 40
0.0
 40
0.0
 40
0.0
 40
0.0
 40
1.0
 40
1.0
 40
1.0
 40
1.0
 10
7.563566599717145
 20
25.83730113559788
 30
0.0
 10
8.12952787552937
 20
24.63160019700506
 30
0.0
 10
8.685048561061969
 20
23.41980541582215
 30
0.0
 10
9.224836998503585
 20
22.20277536805604
 30
0.0
  0
SPLINE
  5
D6
330
1F
100
AcDbEntity
  8
1
  6
SLD-Gestrichelt
 62
   131
420
  8454143
370
     0
100
AcDbSpline
210
0.0
220
0.0
230
1.0
 70
     8
 71
     3
 72
    10
 73
     6
 74
     0
 42
0.000000001
 43
0.00000001
 40
0.0
 40
0.0
 40
0.0
 40
0.0
 40
0.5
 40
0.5
 40
1.0
 40
1.0
 40
1.0
 40
1.0
 10
9.224836998503585
 20
21.4521103434595
 30
0.0
 10
9.22483699850448
 20
21.39129526002917
 30
0.0
 10
9.240322884619143
 20
21.32971099377077
 30
0.0
 10
9.30747208643229
 20
21.22734896512881
 30
0.0
 10
9.363142463093977
 20
21.1872919870998
 30
0.0
 10
9.424836998503592
 20
21.1872919870998
 30
0.0
  0
SPLINE
  5
D7
330
1F
100
AcDbEntity
  8
1
  6
SLD-Gestrichelt
 62
   131
420
  8454143
370
     0
100
AcDbSpline
210
0.0
220
0.0
230
1.0
 70
     8
 71
     3
 72
    12
 73
     8
 74
     0
 42
0.000000001
 43
0.00000001
 40
0.0
 40
0.0
 40
0.0
 40
0.0
 40
0.249999999999996
 40
0.249999999999996
 40
0.499999999999992
 40
0.499999999999992
 40
1.0
 40
1.0
 40
1.0
 40
1.0
 10
12.7748369985036
 20
21.18729198709984
 30
0.0
 10
12.80530521006898
 20
21.18729198709984
 30
0.0
 10
12.83581370604261
 20
21.19705630210113
 30
0.0
 10
12.88773428818918
 20
21.23030997505538
 30
0.0
 10
12.90895204920184
 20
21.25291629728255
 30
0.0
 10
12.95916960085445
 20
21.32936760469355
 30
0.0
 10
12.9748369985036
 20
21.39111602605854
 30
0.0
 10
12.97483699850359
 20
21.45211034346463
 30
0.0
  0
LINE
  5
D8
330
1F
100
AcDbEntity
  8
1
  6
SLD-Gestrichelt
 62
   131
420
  8454143
370
     0
100
AcDbLine
 10
9.4248369985
 20
21.1872919871
 30
0.0
 11
12.7748369985
 21
21.1872919871
 31
0.0
  0
LINE
  5
D9
330
1F
100
AcDbEntity
  8
1
  6
SLD-Gestrichelt
 62
   131
420
  8454143
370
     0
100
AcDbLine
 10
-60.2001630015
 20
0.0032030286
 30
0.0
 11
-60.2001630015
 21
8.5032030286
 31
0.0
  0
LINE
  5
DA
330
1F
100
AcDbEntity
  8
1
  6
SLD-Gestrichelt
 62
   131
420
  8454143
370
     0
100
AcDbLine
 10
-60.2001630015
 20
-8.4967969714
 30
0.0
 11
-60.2001630015
 21
0.0032030286
 31
0.0
  0
LINE
  5
DB
330
1F
100
AcDbEntity
  8
1
  6
SLD-Gestrichelt
 62
   131
420
  8454143
370
     0
100
AcDbLine
 10
-58.4681121939
 20
0.0032030286
 30
0.0
 11
-58.4681121939
 21
7.0032030286
 31
0.0
  0
LINE
  5
DC
330
1F
100
AcDbEntity
  8
1
  6
SLD-Gestrichelt
 62
   131
420
  8454143
370
     0
100
AcDbLine
 10
-58.4681121939
 20
-6.9967969714
 30
0.0
 11
-58.4681121939
 21
0.0032030286
 31
0.0
  0
LINE
  5
DD
330
1F
100
AcDbEntity
  8
1
  6
SLD-Gestrichelt
 62
   131
420
  8454143
370
     0
100
AcDbLine
 10
-23.4967205254
 20
0.0032030286
 30
0.0
 11
-23.4967205254
 21
3.0032030286
 31
0.0
  0
LINE
  5
DE
330
1F
100
AcDbEntity
  8
1
  6
SLD-Gestrichelt
 62
   131
420
  8454143
370
     0
100
AcDbLine
 10
-23.4967205254
 20
-2.9967969714
 30
0.0
 11
-23.4967205254
 21
0.0032030286
 31
0.0
  0
LINE
  5
DF
330
1F
100
AcDbEntity
  8
1
  6
SLD-Gestrichelt
 62
   131
420
  8454143
370
     0
100
AcDbLine
 10
-25.9001630015
 20
0.0032030286
 30
0.0
 11
-25.9001630015
 21
7.0032030286
 31
0.0
  0
LINE
  5
E0
330
1F
100
AcDbEntity
  8
1
  6
SLD-Gestrichelt
 62
   131
420
  8454143
370
     0
100
AcDbLine
 10
-25.9001630015
 20
-6.9967969714
 30
0.0
 11
-25.9001630015
 21
0.0032030286
 31
0.0
  0
LINE
  5
E1
330
1F
100
AcDbEntity
  8
1
  6
SLD-Gestrichelt
 62
   131
420
  8454143
370
     0
100
AcDbLine
 10
85.9998369985
 20
11.3032030286
 30
0.0
 11
77.9998369985
 21
11.3032030286
 31
0.0
  0
LINE
  5
E2
330
1F
100
AcDbEntity
  8
1
  6
SLD-Gestrichelt
 62
   131
420
  8454143
370
     0
100
AcDbLine
 10
99.4998369985
 20
0.0032030286
 30
0.0
 11
99.4998369985
 21
3.0032030286
 31
0.0
  0
LINE
  5
E3
330
1F
100
AcDbEntity
  8
1
  6
SLD-Gestrichelt
 62
   131
420
  8454143
370
     0
100
AcDbLine
 10
99.4998369985
 20
-2.9967969714
 30
0.0
 11
99.4998369985
 21
0.0032030286
 31
0.0
  0
LINE
  5
E4
330
1F
100
AcDbEntity
  8
1
  6
SLD-Gestrichelt
 62
   131
420
  8454143
370
     0
100
AcDbLine
 10
61.9998369985
 20
0.0032030286
 30
0.0
 11
61.9998369985
 21
3.5032030286
 31
0.0
  0
LINE
  5
E5
330
1F
100
AcDbEntity
  8
1
  6
SLD-Gestrichelt
 62
   131
420
  8454143
370
     0
100
AcDbLine
 10
61.9998369985
 20
-3.4967969714
 30
0.0
 11
61.9998369985
 21
0.0032030286
 31
0.0
  0
LINE
  5
E6
330
1F
100
AcDbEntity
  8
1
  6
SLD-Gestrichelt
 62
   131
420
  8454143
370
     0
100
AcDbLine
 10
59.9998369985
 20
0.0032030286
 30
0.0
 11
59.9998369985
 21
3.5032030286
 31
0.0
  0
LINE
  5
E7
330
1F
100
AcDbEntity
  8
1
  6
SLD-Gestrichelt
 62
   131
420
  8454143
370
     0
100
AcDbLine
 10
59.9998369985
 20
-3.4967969714
 30
0.0
 11
59.9998369985
 21
0.0032030286
 31
0.0
  0
SPLINE
  5
E8
330
1F
100
AcDbEntity
  8
1
  6
SLD-Gestrichelt
 62
   131
420
  8454143
370
     0
100
AcDbSpline
210
0.0
220
0.0
230
1.0
 70
     8
 71
     3
 72
    18
 73
    14
 74
     0
 42
0.000000001
 43
0.00000001
 40
0.0
 40
0.0
 40
0.0
 40
0.0
 40
0.084896319497002
 40
0.1694335801713235
 40
0.2851520012563724
 40
0.4029921427188703
 40
0.4673426233717268
 40
0.5322691795704604
 40
0.6028265716825408
 40
0.7152335935136642
 40
0.8334295307511329
 40
0.9226282219969115
 40
1.0
 40
1.0
 40
1.0
 40
1.0
 10
84.4998369985036
 20
3.00320302863854
 30
0.0
 10
84.47972057168958
 20
2.986342569724278
 30
0.0
 10
84.4395727980812
 20
2.952692961188825
 30
0.0
 10
84.11156903704426
 20
2.684431839935638
 30
0.0
 10
83.57825061751305
 20
2.277582884607857
 30
0.0
 10
82.92782970839137
 20
1.869604196329617
 30
0.0
 10
82.27947882854505
 20
1.655828266960353
 30
0.0
 10
81.70718782457793
 20
1.655046211963505
 30
0.0
 10
81.05879028728552
 20
1.877885384628403
 30
0.0
 10
80.40579282688033
 20
2.28861559686309
 30
0.0
 10
79.87279665312174
 20
2.696358816499732
 30
0.0
 10
79.54900719593213
 20
2.962006857020052
 30
0.0
 10
79.52447008990117
 20
2.982639186724393
 30
0.0
 10
79.51307263434241
 20
2.992222878484219
 30
0.0
  0
LINE
  5
E9
330
1F
100
AcDbEntity
  8
1
  6
SLD-Gestrichelt
 62
   131
420
  8454143
370
     0
100
AcDbLine
 10
3.1998369985
 20
18.5032030286
 30
0.0
 11
19.0998369985
 21
18.5032030286
 31
0.0
  0
LINE
  5
EA
330
1F
100
AcDbEntity
  8
1
  6
SLD-Gestrichelt
 62
   131
420
  8454143
370
     0
100
AcDbLine
 10
12.7748369985
 20
18.5032030286
 30
0.0
 11
12.7748369985
 21
8.0532030286
 31
0.0
  0
LINE
  5
EB
330
1F
100
AcDbEntity
  8
1
  6
SLD-Gestrichelt
 62
   131
420
  8454143
370
     0
100
AcDbLine
 10
9.4248369985
 20
18.5032030286
 30
0.0
 11
9.4248369985
 21
8.0532030286
 31
0.0
  0
LINE
  5
EC
330
1F
100
AcDbEntity
  8
1
  6
SLD-Gestrichelt
 62
   131
420
  8454143
370
     0
100
AcDbLine
 10
3.1998369985
 20
7.5532030286
 30
0.0
 11
19.0998369985
 21
7.5532030286
 31
0.0
  0
LINE
  5
ED
330
1F
100
AcDbEntity
  8
1
  6
SLD-Gestrichelt
 62
   131
420
  8454143
370
     0
100
AcDbLine
 10
19.0998369985
 20
-7.5467969714
 30
0.0
 11
3.1998369985
 21
-7.5467969714
 31
0.0
  0
ARC
  5
EE
330
1F
100
AcDbEntity
  8
1
  6
SLD-Gestrichelt
 62
   131
420
  8454143
370
     0
100
AcDbCircle
 10
-67.4001630015
 20
-9.4967969714
 30
0.0
 40
1.000000000000007
100
AcDbArc
 50
90.0
 51
180.0
  0
ARC
  5
EF
330
1F
100
AcDbEntity
  8
1
  6
SLD-Gestrichelt
 62
   131
420
  8454143
370
     0
100
AcDbCircle
 10
-67.4001630015
 20
9.5032030286
 30
0.0
 40
1.000000000000007
100
AcDbArc
 50
180.0
 51
270.0
  0
LINE
  5
F0
330
1F
100
AcDbEntity
  8
1
  6
SLD-Gestrichelt
 62
   131
420
  8454143
370
     0
100
AcDbLine
 10
-67.4001630015
 20
-8.4967969714
 30
0.0
 11
-60.2001630015
 21
-8.4967969714
 31
0.0
  0
LINE
  5
F1
330
1F
100
AcDbEntity
  8
1
  6
SLD-Gestrichelt
 62
   131
420
  8454143
370
     0
100
AcDbLine
 10
-60.2001630015
 20
8.5032030286
 30
0.0
 11
-67.4001630015
 21
8.5032030286
 31
0.0
  0
LINE
  5
F2
330
1F
100
AcDbEntity
  8
1
  6
SLD-Gestrichelt
 62
   131
420
  8454143
370
     0
100
AcDbLine
 10
-60.2001630015
 20
-7.9967969714
 30
0.0
 11
-58.4681121939
 21
-6.9967969714
 31
0.0
  0
LINE
  5
F3
330
1F
100
AcDbEntity
  8
1
  6
SLD-Gestrichelt
 62
   131
420
  8454143
370
     0
100
AcDbLine
 10
-58.4681121939
 20
7.0032030286
 30
0.0
 11
-60.2001630015
 21
8.0032030286
 31
0.0
  0
LINE
  5
F4
330
1F
100
AcDbEntity
  8
1
  6
SLD-Gestrichelt
 62
   131
420
  8454143
370
     0
100
AcDbLine
 10
-25.9001630015
 20
-6.9967969714
 30
0.0
 11
-23.4967205254
 21
-2.9967969714
 31
0.0
  0
LINE
  5
F5
330
1F
100
AcDbEntity
  8
1
  6
SLD-Gestrichelt
 62
   131
420
  8454143
370
     0
100
AcDbLine
 10
-23.4967205254
 20
3.0032030286
 30
0.0
 11
-25.9001630015
 21
7.0032030286
 31
0.0
  0
LINE
  5
F6
330
1F
100
AcDbEntity
  8
1
  6
SLD-Gestrichelt
 62
   131
420
  8454143
370
     0
100
AcDbLine
 10
-58.4681121939
 20
-6.9967969714
 30
0.0
 11
-25.9001630015
 21
-6.9967969714
 31
0.0
  0
LINE
  5
F7
330
1F
100
AcDbEntity
  8
1
  6
SLD-Gestrichelt
 62
   131
420
  8454143
370
     0
100
AcDbLine
 10
-25.9001630015
 20
7.0032030286
 30
0.0
 11
-58.4681121939
 21
7.0032030286
 31
0.0
  0
LINE
  5
F8
330
1F
100
AcDbEntity
  8
1
  6
SLD-Gestrichelt
 62
   131
420
  8454143
370
     0
100
AcDbLine
 10
85.9998369985
 20
11.3032030286
 30
0.0
 11
85.9998369985
 21
12.5032030286
 31
0.0
  0
LINE
  5
F9
330
1F
100
AcDbEntity
  8
1
  6
SLD-Gestrichelt
 62
   131
420
  8454143
370
     0
100
AcDbLine
 10
77.9998369985
 20
12.5032030286
 30
0.0
 11
77.9998369985
 21
11.3032030286
 31
0.0
  0
LINE
  5
FA
330
1F
100
AcDbEntity
  8
1
  6
SLD-Gestrichelt
 62
   131
420
  8454143
370
     0
100
AcDbLine
 10
99.9998369985
 20
3.5032030286
 30
0.0
 11
99.4998369985
 21
3.0032030286
 31
0.0
  0
LINE
  5
FB
330
1F
100
AcDbEntity
  8
1
  6
SLD-Gestrichelt
 62
   131
420
  8454143
370
     0
100
AcDbLine
 10
99.4998369985
 20
-2.9967969714
 30
0.0
 11
99.9998369985
 21
-3.4967969714
 31
0.0
  0
LINE
  5
FC
330
1F
100
AcDbEntity
  8
1
  6
SLD-Gestrichelt
 62
   131
420
  8454143
370
     0
100
AcDbLine
 10
59.9998369985
 20
-3.4967969714
 30
0.0
 11
61.9998369985
 21
-3.4967969714
 31
0.0
  0
LINE
  5
FD
330
1F
100
AcDbEntity
  8
1
  6
SLD-Gestrichelt
 62
   131
420
  8454143
370
     0
100
AcDbLine
 10
61.9998369985
 20
3.5032030286
 30
0.0
 11
59.9998369985
 21
3.5032030286
 31
0.0
  0
LINE
  5
FE
330
1F
100
AcDbEntity
  8
1
  6
SLD-Gestrichelt
 62
   131
420
  8454143
370
     0
100
AcDbLine
 10
-23.4967205254
 20
-2.9967969714
 30
0.0
 11
59.9998369985
 21
-2.9967969714
 31
0.0
  0
LINE
  5
FF
330
1F
100
AcDbEntity
  8
1
  6
SLD-Gestrichelt
 62
   131
420
  8454143
370
     0
100
AcDbLine
 10
59.9998369985
 20
3.0032030286
 30
0.0
 11
-23.4967205254
 21
3.0032030286
 31
0.0
  0
LINE
  5
100
330
1F
100
AcDbEntity
  8
1
  6
SLD-Gestrichelt
 62
   131
420
  8454143
370
     0
100
AcDbLine
 10
61.9998369985
 20
-2.9967969714
 30
0.0
 11
99.4998369985
 21
-2.9967969714
 31
0.0
  0
LINE
  5
101
330
1F
100
AcDbEntity
  8
1
  6
SLD-Gestrichelt
 62
   131
420
  8454143
370
     0
100
AcDbLine
 10
79.5130726343
 20
3.0032030286
 30
0.0
 11
61.9998369985
 21
3.0032030286
 31
0.0
  0
LINE
  5
102
330
1F
100
AcDbEntity
  8
1
  6
SLD-Gestrichelt
 62
   131
420
  8454143
370
     0
100
AcDbLine
 10
99.4998369985
 20
3.0032030286
 30
0.0
 11
84.4998369985
 21
3.0032030286
 31
0.0
  0
LINE
  5
103
330
1F
100
AcDbEntity
  8
1
  6
SLD-Gestrichelt
 62
   131
420
  8454143
370
     0
100
AcDbLine
 10
84.4998369985
 20
3.0032030286
 30
0.0
 11
84.4998369985
 21
11.3032030286
 31
0.0
  0
LINE
  5
104
330
1F
100
AcDbEntity
  8
1
  6
SLD-Gestrichelt
 62
   131
420
  8454143
370
     0
100
AcDbLine
 10
79.4998369985
 20
11.3032030286
 30
0.0
 11
79.4998369985
 21
2.9922631398
 31
0.0
  0
LINE
  5
105
330
1F
100
AcDbEntity
  8
1
  6
SLD-Gestrichelt
 62
   131
420
  8454143
370
     0
100
AcDbLine
 10
12.7748369985
 20
-8.0467969714
 30
0.0
 11
12.7748369985
 21
-28.1217969714
 31
0.0
  0
LINE
  5
106
330
1F
100
AcDbEntity
  8
1
  6
SLD-Gestrichelt
 62
   131
420
  8454143
370
     0
100
AcDbLine
 10
9.4248369985
 20
-8.0467969714
 30
0.0
 11
9.4248369985
 21
-28.1217969714
 31
0.0
  0
LINE
  5
107
330
1F
100
AcDbEntity
  8
1
  6
SLD-Gestrichelt
 62
   131
420
  8454143
370
     0
100
AcDbLine
 10
-67.3698665068
 20
12.6040824772
 30
0.0
 11
-67.3698665068
 21
-12.5976764199
 31
0.0
  0
LINE
  5
108
330
1F
100
AcDbEntity
  8
1
  6
SLD-Gestrichelt
 62
   131
420
  8454143
370
     0
100
AcDbLine
 10
3.0998369985
 20
22.3367715406
 30
0.0
 11
3.0998369985
 21
-22.3303654833
 31
0.0
  0
LINE
  5
109
330
1F
100
AcDbEntity
  8
1
  6
SLD-Gestrichelt
 62
   131
420
  8454143
370
     0
100
AcDbLine
 10
1.6998369985
 20
22.3367715406
 30
0.0
 11
1.6998369985
 21
-22.3303654833
 31
0.0
  0
LINE
  5
10A
330
1F
100
AcDbEntity
  8
1
  6
SLD-Gestrichelt
 62
   131
420
  8454143
370
     0
100
AcDbLine
 10
28.7998369985
 20
12.5032030286
 30
0.0
 11
28.7998369985
 21
-12.4967969714
 31
0.0
  0
LINE
  5
10B
330
1F
100
AcDbEntity
  8
1
  6
SLD-Gestrichelt
 62
   131
420
  8454143
370
     0
100
AcDbLine
 10
-67.4001630015
 20
-8.4967969714
 30
0.0
 11
-67.4001630015
 21
8.4864302203
 31
0.0
  0
DIMENSION
  5
10C
330
1F
100
AcDbEntity
  8
2
 62
     7
420
 16777215
100
AcDbDimension
  2
_D
 10
99.9998369985
 20
43.7782030286
 30
0.0
 11
15.7998369985
 21
43.7782030286
 31
0.0
 70
   160
  1
<>
 71
     2
 42
-1.0
  3
SLDDIMSTYLE0
100
AcDbAlignedDimension
 13
-68.4001630015
 23
0.0032030286
 33
0.0
 14
99.9998369985
 24
0.0032030286
 34
0.0
 50
0.0
100
AcDbRotatedDimension
  0
DIMENSION
  5
118
330
1F
100
AcDbEntity
  8
2
 62
     7
420
 16777215
100
AcDbDimension
  2
_D_1
 10
-0.0001630015
 20
37.7782030286
 30
0.0
 11
49.9998369985
 21
37.7782030286
 31
0.0
 70
   160
  1
<>
 71
     2
 42
-1.0
  3
SLDDIMSTYLE0
100
AcDbAlignedDimension
 13
99.9998369985
 23
0.0032030286
 33
0.0
 14
-0.0001630015
 24
0.0032030286
 34
0.0
100
AcDbRotatedDimension
  0
DIMENSION
  5
122
330
1F
100
AcDbEntity
  8
2
  6
SLD-Durchgehend
 62
   208
420
  4194368
370
    15
100
AcDbDimension
  2
_D_2
 10
105.9998369985
 20
-2.9967969714
 30
0.0
 11
105.9998369985
 21
-13.2221270969
 31
0.0
 70
   160
  1
%%c<>
 71
     2
 42
-1.0
  3
SLDDIMSTYLE1
100
AcDbAlignedDimension
 13
99.4998369985
 23
3.0032030286
 33
0.0
 14
99.4998369985
 24
-2.9967969714
 34
0.0
 50
90.0
100
AcDbRotatedDimension
  0
DIMENSION
  5
130
330
1F
100
AcDbEntity
  8
2
  6
SLD-Durchgehend
 62
   208
420
  4194368
370
    15
100
AcDbDimension
  2
_D_3
 10
117.9998369985
 20
-12.4967969714
 30
0.0
 11
117.9998369985
 21
0.0032030286
 31
0.0
 70
   160
  1
%%c<>
 71
     2
 42
-1.0
  3
SLDDIMSTYLE0
100
AcDbAlignedDimension
 13
89.277302396
 23
12.5032030286
 33
0.0
 14
89.277302396
 24
-12.4967969714
 34
0.0
 50
90.0
100
AcDbRotatedDimension
  0
LINE
  5
13B
330
1F
100
AcDbEntity
  8
0
  6
SLD-Durchgehend
 62
     7
370
     0
100
AcDbLine
 10
-25.9001630015
 20
-7.9967969714
 30
0.0
 11
-60.2001630015
 21
-7.9967969714
 31
0.0
  0
LINE
  5
13C
330
1F
100
AcDbEntity
  8
0
  6
SLD-Durchgehend
 62
     7
370
     0
100
AcDbLine
 10
-25.9001630015
 20
8.0032030286
 30
0.0
 11
-60.2001630015
 21
8.0032030286
 31
0.0
  0
LINE
  5
13D
330
1F
100
AcDbEntity
  8
0
  6
SLD-Durchgehend
 62
     7
370
     0
100
AcDbLine
 10
84.9998369985
 20
11.3032030286
 30
0.0
 11
84.9998369985
 21
3.0032030286
 31
0.0
  0
LINE
  5
13E
330
1F
100
AcDbEntity
  8
0
  6
SLD-Durchgehend
 62
     7
370
     0
100
AcDbLine
 10
78.9998369985
 20
11.3032030286
 30
0.0
 11
78.9998369985
 21
3.0032030286
 31
0.0
  0
ENDSEC
  0
SECTION
  2
OBJECTS
  0
DICTIONARY
  5
C
330
0
100
AcDbDictionary
281
     1
  3
ACAD_DETAILVIEWSTYLE
350
148
  3
ACAD_GROUP
350
D
  3
ACAD_LAYOUT
350
1A
  3
ACAD_MATERIAL
350
43
  3
ACAD_MLEADERSTYLE
350
6B
  3
ACAD_MLINESTYLE
350
17
  3
ACAD_PLOTSETTINGS
350
19
  3
ACAD_PLOTSTYLENAME
350
E
  3
ACAD_SCALELIST
350
47
  3
ACAD_SECTIONVIEWSTYLE
350
149
  3
ACAD_TABLESTYLE
350
69
  3
ACDB_RECOMPOSE_DATA
350
145
  3
AcDbVariableDictionary
350
13F
  0
DICTIONARY
  5
148
102
{ACAD_REACTORS
330
C
102
}
330
C
100
AcDbDictionary
281
     1
  0
DICTIONARY
  5
D
102
{ACAD_REACTORS
330
C
102
}
330
C
100
AcDbDictionary
281
     1
  0
DICTIONARY
  5
1A
102
{ACAD_REACTORS
330
C
102
}
330
C
100
AcDbDictionary
281
     1
  3
Layout1
350
1E
  3
Layout2
350
26
  3
Model
350
22
  0
DICTIONARY
  5
43
102
{ACAD_REACTORS
330
C
102
}
330
C
100
AcDbDictionary
281
     1
  3
ByBlock
350
45
  3
ByLayer
350
44
  3
Global
350
46
  0
DICTIONARY
  5
6B
102
{ACAD_REACTORS
330
C
102
}
330
C
100
AcDbDictionary
281
     1
  3
Standard
350
6C
  0
DICTIONARY
  5
17
102
{ACAD_REACTORS
330
C
102
}
330
C
100
AcDbDictionary
281
     1
  3
Standard
350
18
  0
DICTIONARY
  5
19
102
{ACAD_REACTORS
330
C
102
}
330
C
100
AcDbDictionary
281
     1
  0
ACDBDICTIONARYWDFLT
  5
E
102
{ACAD_REACTORS
330
C
102
}
330
C
100
AcDbDictionary
281
     1
  3
Normal
350
F
100
AcDbDictionaryWithDefault
340
F
  0
DICTIONARY
  5
47
102
{ACAD_REACTORS
330
C
102
}
330
C
100
AcDbDictionary
281
     1
  3
A0
350
48
  3
A1
350
49
  3
A2
350
4A
  3
A3
350
4B
  3
A4
350
4C
  3
A5
350
4D
  3
A6
350
4E
  3
A7
350
4F
  3
A8
350
50
  3
A9
350
51
  3
B0
350
52
  3
B1
350
53
  3
B2
350
54
  3
B3
350
55
  3
B4
350
56
  3
B5
350
57
  3
B6
350
58
  3
B7
350
59
  3
B8
350
5A
  3
B9
350
5B
  3
C0
350
5C
  3
C1
350
5D
  3
C2
350
5E
  3
C3
350
5F
  3
C4
350
60
  3
C5
350
61
  3
C6
350
62
  3
C7
350
63
  3
C8
350
64
  3
C9
350
65
  3
D0
350
66
  3
D1
350
67
  3
D2
350
68
  0
DICTIONARY
  5
149
102
{ACAD_REACTORS
330
C
102
}
330
C
100
AcDbDictionary
281
     1
  0
DICTIONARY
  5
69
102
{ACAD_REACTORS
330
C
102
}
330
C
100
AcDbDictionary
281
     1
  3
Standard
350
6A
  0
XRECORD
  5
145
102
{ACAD_REACTORS
330
C
102
}
330
C
100
AcDbXrecord
280
     1
 90
        1
330
6A
  0
DICTIONARY
  5
13F
102
{ACAD_REACTORS
330
C
102
}
330
C
100
AcDbDictionary
281
     1
  3
CANNOSCALE
350
140
  3
CMLEADERSTYLE
350
147
  3
CTABLESTYLE
350
146
  0
LAYOUT
  5
1E
102
{ACAD_REACTORS
330
1A
102
}
330
1A
100
AcDbPlotSettings
  1

  2
none_device
  4

  6

 40
0.0
 41
0.0
 42
0.0
 43
0.0
 44
0.0
 45
0.0
 46
0.0
 47
0.0
 48
0.0
 49
0.0
140
0.0
141
0.0
142
1.0
143
1.0
 70
   688
 72
     1
 73
     0
 74
     5
  7

 75
    16
 76
     0
 77
     2
 78
   300
147
1.0
148
0.0
149
0.0
100
AcDbLayout
  1
Layout1
 70
     1
 71
     1
 10
0.0
 20
0.0
 11
420.0
 21
297.0
 12
0.0
 22
0.0
 32
0.0
 14
1.0000000000E+20
 24
1.0000000000E+20
 34
1.0000000000E+20
 15
-1.0000000000E+20
 25
-1.0000000000E+20
 35
-1.0000000000E+20
146
0.0
 13
0.0
 23
0.0
 33
0.0
 16
1.0
 26
0.0
 36
0.0
 17
0.0
 27
1.0
 37
0.0
 76
     0
330
1B
  0
LAYOUT
  5
26
102
{ACAD_REACTORS
330
1A
102
}
330
1A
100
AcDbPlotSettings
  1

  2
none_device
  4

  6

 40
0.0
 41
0.0
 42
0.0
 43
0.0
 44
0.0
 45
0.0
 46
0.0
 47
0.0
 48
0.0
 49
0.0
140
0.0
141
0.0
142
1.0
143
1.0
 70
   688
 72
     1
 73
     0
 74
     5
  7

 75
    16
 76
     0
 77
     2
 78
   300
147
1.0
148
0.0
149
0.0
100
AcDbLayout
  1
Layout2
 70
     1
 71
     2
 10
0.0
 20
0.0
 11
0.0
 21
0.0
 12
0.0
 22
0.0
 32
0.0
 14
0.0
 24
0.0
 34
0.0
 15
0.0
 25
0.0
 35
0.0
146
0.0
 13
0.0
 23
0.0
 33
0.0
 16
1.0
 26
0.0
 36
0.0
 17
0.0
 27
1.0
 37
0.0
 76
     0
330
23
  0
LAYOUT
  5
22
102
{ACAD_REACTORS
330
1A
102
}
330
1A
100
AcDbPlotSettings
  1

  2
none_device
  4
Letter_(8.50_x_11.00_Inches)
  6

 40
6.35
 41
6.35
 42
6.35000508
 43
6.35000508
 44
215.9
 45
279.4
 46
0.0
 47
0.0
 48
0.0
 49
0.0
140
0.0
141
0.0
142
1.0
143
1.0
 70
  1712
 72
     1
 73
     0
 74
     0
  7

 75
     0
 76
     0
 77
     2
 78
   300
147
1.0
148
0.0
149
0.0
100
AcDbLayout
  1
Model
 70
     1
 71
     0
 10
0.0
 20
0.0
 11
297.0
 21
210.0
 12
0.0
 22
0.0
 32
0.0
 14
0.0
 24
0.0
 34
0.0
 15
297.0
 25
210.0
 35
0.0
146
0.0
 13
0.0
 23
0.0
 33
0.0
 16
1.0
 26
0.0
 36
0.0
 17
0.0
 27
1.0
 37
0.0
 76
     0
330
1F
331
29
  0
MATERIAL
  5
45
102
{ACAD_REACTORS
330
43
102
}
330
43
100
AcDbMaterial
  1
ByBlock
  0
MATERIAL
  5
44
102
{ACAD_REACTORS
330
43
102
}
330
43
100
AcDbMaterial
  1
ByLayer
  0
MATERIAL
  5
46
102
{ACAD_REACTORS
330
43
102
}
330
43
100
AcDbMaterial
  1
Global
  0
MLEADERSTYLE
  5
6C
102
{ACAD_REACTORS
330
6B
102
}
330
6B
100
AcDbMLeaderStyle
170
     2
171
     1
172
     0
 90
        2
 40
0.0
 41
0.0
173
     1
 91
-1056964608
340
14
 92
       -2
290
     1
 42
2.0
291
     1
 43
8.0
  3
Standard
341
0
 44
4.0
300

342
11
174
     1
178
     6
175
     1
176
     0
 93
-1056964608
 45
4.0
292
     0
297
     0
 46
4.0
343
0
 94
-1056964608
 47
1.0
 49
1.0
140
1.0
293
     1
141
0.0
294
     1
177
     0
142
1.0
295
     0
296
     0
143
3.75
1001
ACAD_MLEADERVER
1070
     2
  0
MLINESTYLE
  5
18
102
{ACAD_REACTORS
330
17
102
}
330
17
100
AcDbMlineStyle
  2
Standard
 70
     0
  3

 62
   256
 51
90.0
 52
90.0
 71
     2
 49
0.5
 62
   256
  6
BYLAYER
 49
-0.5
 62
   256
  6
BYLAYER
  0
ACDBPLACEHOLDER
  5
F
102
{ACAD_REACTORS
330
E
102
}
330
E
  0
SCALE
  5
48
102
{ACAD_REACTORS
330
47
102
}
330
47
100
AcDbScale
 70
     0
300
1:1
140
1.0
141
1.0
290
     1
  0
SCALE
  5
49
102
{ACAD_REACTORS
330
47
102
}
330
47
100
AcDbScale
 70
     0
300
1:2
140
1.0
141
2.0
290
     0
  0
SCALE
  5
4A
102
{ACAD_REACTORS
330
47
102
}
330
47
100
AcDbScale
 70
     0
300
1:4
140
1.0
141
4.0
290
     0
  0
SCALE
  5
4B
102
{ACAD_REACTORS
330
47
102
}
330
47
100
AcDbScale
 70
     0
300
1:5
140
1.0
141
5.0
290
     0
  0
SCALE
  5
4C
102
{ACAD_REACTORS
330
47
102
}
330
47
100
AcDbScale
 70
     0
300
1:8
140
1.0
141
8.0
290
     0
  0
SCALE
  5
4D
102
{ACAD_REACTORS
330
47
102
}
330
47
100
AcDbScale
 70
     0
300
1:10
140
1.0
141
10.0
290
     0
  0
SCALE
  5
4E
102
{ACAD_REACTORS
330
47
102
}
330
47
100
AcDbScale
 70
     0
300
1:16
140
1.0
141
16.0
290
     0
  0
SCALE
  5
4F
102
{ACAD_REACTORS
330
47
102
}
330
47
100
AcDbScale
 70
     0
300
1:20
140
1.0
141
20.0
290
     0
  0
SCALE
  5
50
102
{ACAD_REACTORS
330
47
102
}
330
47
100
AcDbScale
 70
     0
300
1:30
140
1.0
141
30.0
290
     0
  0
SCALE
  5
51
102
{ACAD_REACTORS
330
47
102
}
330
47
100
AcDbScale
 70
     0
300
1:40
140
1.0
141
40.0
290
     0
  0
SCALE
  5
52
102
{ACAD_REACTORS
330
47
102
}
330
47
100
AcDbScale
 70
     0
300
1:50
140
1.0
141
50.0
290
     0
  0
SCALE
  5
53
102
{ACAD_REACTORS
330
47
102
}
330
47
100
AcDbScale
 70
     0
300
1:100
140
1.0
141
100.0
290
     0
  0
SCALE
  5
54
102
{ACAD_REACTORS
330
47
102
}
330
47
100
AcDbScale
 70
     0
300
2:1
140
2.0
141
1.0
290
     0
  0
SCALE
  5
55
102
{ACAD_REACTORS
330
47
102
}
330
47
100
AcDbScale
 70
     0
300
4:1
140
4.0
141
1.0
290
     0
  0
SCALE
  5
56
102
{ACAD_REACTORS
330
47
102
}
330
47
100
AcDbScale
 70
     0
300
8:1
140
8.0
141
1.0
290
     0
  0
SCALE
  5
57
102
{ACAD_REACTORS
330
47
102
}
330
47
100
AcDbScale
 70
     0
300
10:1
140
10.0
141
1.0
290
     0
  0
SCALE
  5
58
102
{ACAD_REACTORS
330
47
102
}
330
47
100
AcDbScale
 70
     0
300
100:1
140
100.0
141
1.0
290
     0
  0
SCALE
  5
59
102
{ACAD_REACTORS
330
47
102
}
330
47
100
AcDbScale
 70
     0
300
1/128" = 1'-0"
140
0.0078125
141
12.0
290
     0
  0
SCALE
  5
5A
102
{ACAD_REACTORS
330
47
102
}
330
47
100
AcDbScale
 70
     0
300
1/64" = 1'-0"
140
0.015625
141
12.0
290
     0
  0
SCALE
  5
5B
102
{ACAD_REACTORS
330
47
102
}
330
47
100
AcDbScale
 70
     0
300
1/32" = 1'-0"
140
0.03125
141
12.0
290
     0
  0
SCALE
  5
5C
102
{ACAD_REACTORS
330
47
102
}
330
47
100
AcDbScale
 70
     0
300
1/16" = 1'-0"
140
0.0625
141
12.0
290
     0
  0
SCALE
  5
5D
102
{ACAD_REACTORS
330
47
102
}
330
47
100
AcDbScale
 70
     0
300
3/32" = 1'-0"
140
0.09375
141
12.0
290
     0
  0
SCALE
  5
5E
102
{ACAD_REACTORS
330
47
102
}
330
47
100
AcDbScale
 70
     0
300
1/8" = 1'-0"
140
0.125
141
12.0
290
     0
  0
SCALE
  5
5F
102
{ACAD_REACTORS
330
47
102
}
330
47
100
AcDbScale
 70
     0
300
3/16" = 1'-0"
140
0.1875
141
12.0
290
     0
  0
SCALE
  5
60
102
{ACAD_REACTORS
330
47
102
}
330
47
100
AcDbScale
 70
     0
300
1/4" = 1'-0"
140
0.25
141
12.0
290
     0
  0
SCALE
  5
61
102
{ACAD_REACTORS
330
47
102
}
330
47
100
AcDbScale
 70
     0
300
3/8" = 1'-0"
140
0.375
141
12.0
290
     0
  0
SCALE
  5
62
102
{ACAD_REACTORS
330
47
102
}
330
47
100
AcDbScale
 70
     0
300
1/2" = 1'-0"
140
0.5
141
12.0
290
     0
  0
SCALE
  5
63
102
{ACAD_REACTORS
330
47
102
}
330
47
100
AcDbScale
 70
     0
300
3/4" = 1'-0"
140
0.75
141
12.0
290
     0
  0
SCALE
  5
64
102
{ACAD_REACTORS
330
47
102
}
330
47
100
AcDbScale
 70
     0
300
1" = 1'-0"
140
1.0
141
12.0
290
     0
  0
SCALE
  5
65
102
{ACAD_REACTORS
330
47
102
}
330
47
100
AcDbScale
 70
     0
300
1-1/2" = 1'-0"
140
1.5
141
12.0
290
     0
  0
SCALE
  5
66
102
{ACAD_REACTORS
330
47
102
}
330
47
100
AcDbScale
 70
     0
300
3" = 1'-0"
140
3.0
141
12.0
290
     0
  0
SCALE
  5
67
102
{ACAD_REACTORS
330
47
102
}
330
47
100
AcDbScale
 70
     0
300
6" = 1'-0"
140
6.0
141
12.0
290
     0
  0
SCALE
  5
68
102
{ACAD_REACTORS
330
47
102
}
330
47
100
AcDbScale
 70
     0
300
1'-0" = 1'-0"
140
12.0
141
12.0
290
     0
  0
TABLESTYLE
  5
6A
102
{ACAD_REACTORS
330
69
102
}
102
{ACAD_XDICTIONARY
360
141
102
}
330
69
100
AcDbTableStyle
  3
Standard
 70
     0
 71
     0
 40
0.06
 41
0.06
280
     0
281
     0
  7
Standard
140
4.5
170
     2
 62
     0
 63
   257
283
     0
274
    -2
284
     1
 64
     0
275
    -2
285
     1
 65
     0
276
    -2
286
     1
 66
     0
277
    -2
287
     1
 67
     0
278
    -2
288
     1
 68
     0
279
    -2
289
     1
 69
     0
  7
Standard
140
6.0
170
     5
 62
     0
 63
   257
283
     0
274
    -2
284
     1
 64
     0
275
    -2
285
     1
 65
     0
276
    -2
286
     1
 66
     0
277
    -2
287
     1
 67
     0
278
    -2
288
     1
 68
     0
279
    -2
289
     1
 69
     0
  7
Standard
140
4.5
170
     5
 62
     0
 63
   257
283
     0
274
    -2
284
     1
 64
     0
275
    -2
285
     1
 65
     0
276
    -2
286
     1
 66
     0
277
    -2
287
     1
 67
     0
278
    -2
288
     1
 68
     0
279
    -2
289
     1
 69
     0
  0
DICTIONARYVAR
  5
140
102
{ACAD_REACTORS
330
13F
102
}
330
13F
100
DictionaryVariables
280
     0
  1
1:1
  0
DICTIONARYVAR
  5
147
102
{ACAD_REACTORS
330
13F
102
}
330
13F
100
DictionaryVariables
280
     0
  1
Standard
  0
DICTIONARYVAR
  5
146
102
{ACAD_REACTORS
330
13F
102
}
330
13F
100
DictionaryVariables
280
     0
  1
Standard
  0
DICTIONARY
  5
141
330
6A
100
AcDbDictionary
280
     1
281
     1
  3
ACAD_ROUNDTRIP_2008_TABLESTYLE_CELLSTYLEMAP
360
143
  3
ACAD_XREC_ROUNDTRIP
360
142
  0
CELLSTYLEMAP
  5
143
102
{ACAD_REACTORS
330
141
102
}
330
141
100
AcDbCellStyleMap
 90
        3
300
CELLSTYLE
  1
TABLEFORMAT_BEGIN
 90
        5
170
     1
 91
        0
 92
    32768
 62
   257
 93
        1
300
CONTENTFORMAT
  1
CONTENTFORMAT_BEGIN
 90
        0
 91
        0
 92
        4
 93
        0
300

 40
0.0
140
1.0
 94
        5
 62
     0
340
11
144
6.0
309
CONTENTFORMAT_END
171
     1
301
MARGIN
  1
CELLMARGIN_BEGIN
 40
1.5
 40
1.5
 40
1.5
 40
1.5
 40
1.5
 40
1.5
309
CELLMARGIN_END
 94
        6
 95
        1
302
GRIDFORMAT
  1
GRIDFORMAT_BEGIN
 90
        0
 91
        1
 62
     0
 92
       -2
340
14
 93
        0
 40
0.045
309
GRIDFORMAT_END
 95
        2
302
GRIDFORMAT
  1
GRIDFORMAT_BEGIN
 90
        0
 91
        1
 62
     0
 92
       -2
340
14
 93
        0
 40
0.045
309
GRIDFORMAT_END
 95
        4
302
GRIDFORMAT
  1
GRIDFORMAT_BEGIN
 90
        0
 91
        1
 62
     0
 92
       -2
340
14
 93
        0
 40
0.045
309
GRIDFORMAT_END
 95
        8
302
GRIDFORMAT
  1
GRIDFORMAT_BEGIN
 90
        0
 91
        1
 62
     0
 92
       -2
340
14
 93
        0
 40
0.045
309
GRIDFORMAT_END
 95
       16
302
GRIDFORMAT
  1
GRIDFORMAT_BEGIN
 90
        0
 91
        1
 62
     0
 92
       -2
340
14
 93
        0
 40
0.045
309
GRIDFORMAT_END
 95
       32
302
GRIDFORMAT
  1
GRIDFORMAT_BEGIN
 90
        0
 91
        1
 62
     0
 92
       -2
340
14
 93
        0
 40
0.045
309
GRIDFORMAT_END
309
TABLEFORMAT_END
  1
CELLSTYLE_BEGIN
 90
        1
 91
        1
300
_TITLE
309
CELLSTYLE_END
300
CELLSTYLE
  1
TABLEFORMAT_BEGIN
 90
        5
170
     1
 91
        0
 92
        0
 62
   257
 93
        1
300
CONTENTFORMAT
  1
CONTENTFORMAT_BEGIN
 90
        0
 91
        0
 92
        4
 93
        0
300

 40
0.0
140
1.0
 94
        5
 62
     0
340
11
144
4.5
309
CONTENTFORMAT_END
171
     1
301
MARGIN
  1
CELLMARGIN_BEGIN
 40
1.5
 40
1.5
 40
1.5
 40
1.5
 40
1.5
 40
1.5
309
CELLMARGIN_END
 94
        6
 95
        1
302
GRIDFORMAT
  1
GRIDFORMAT_BEGIN
 90
        0
 91
        1
 62
     0
 92
       -2
340
14
 93
        0
 40
0.045
309
GRIDFORMAT_END
 95
        2
302
GRIDFORMAT
  1
GRIDFORMAT_BEGIN
 90
        0
 91
        1
 62
     0
 92
       -2
340
14
 93
        0
 40
0.045
309
GRIDFORMAT_END
 95
        4
302
GRIDFORMAT
  1
GRIDFORMAT_BEGIN
 90
        0
 91
        1
 62
     0
 92
       -2
340
14
 93
        0
 40
0.045
309
GRIDFORMAT_END
 95
        8
302
GRIDFORMAT
  1
GRIDFORMAT_BEGIN
 90
        0
 91
        1
 62
     0
 92
       -2
340
14
 93
        0
 40
0.045
309
GRIDFORMAT_END
 95
       16
302
GRIDFORMAT
  1
GRIDFORMAT_BEGIN
 90
        0
 91
        1
 62
     0
 92
       -2
340
14
 93
        0
 40
0.045
309
GRIDFORMAT_END
 95
       32
302
GRIDFORMAT
  1
GRIDFORMAT_BEGIN
 90
        0
 91
        1
 62
     0
 92
       -2
340
14
 93
        0
 40
0.045
309
GRIDFORMAT_END
309
TABLEFORMAT_END
  1
CELLSTYLE_BEGIN
 90
        2
 91
        1
300
_HEADER
309
CELLSTYLE_END
300
CELLSTYLE
  1
TABLEFORMAT_BEGIN
 90
        5
170
     1
 91
        0
 92
        0
 62
   257
 93
        1
300
CONTENTFORMAT
  1
CONTENTFORMAT_BEGIN
 90
        0
 91
        0
 92
        4
 93
        0
300

 40
0.0
140
1.0
 94
        2
 62
     0
340
11
144
4.5
309
CONTENTFORMAT_END
171
     1
301
MARGIN
  1
CELLMARGIN_BEGIN
 40
1.5
 40
1.5
 40
1.5
 40
1.5
 40
1.5
 40
1.5
309
CELLMARGIN_END
 94
        6
 95
        1
302
GRIDFORMAT
  1
GRIDFORMAT_BEGIN
 90
        0
 91
        1
 62
     0
 92
       -2
340
14
 93
        0
 40
0.045
309
GRIDFORMAT_END
 95
        2
302
GRIDFORMAT
  1
GRIDFORMAT_BEGIN
 90
        0
 91
        1
 62
     0
 92
       -2
340
14
 93
        0
 40
0.045
309
GRIDFORMAT_END
 95
        4
302
GRIDFORMAT
  1
GRIDFORMAT_BEGIN
 90
        0
 91
        1
 62
     0
 92
       -2
340
14
 93
        0
 40
0.045
309
GRIDFORMAT_END
 95
        8
302
GRIDFORMAT
  1
GRIDFORMAT_BEGIN
 90
        0
 91
        1
 62
     0
 92
       -2
340
14
 93
        0
 40
0.045
309
GRIDFORMAT_END
 95
       16
302
GRIDFORMAT
  1
GRIDFORMAT_BEGIN
 90
        0
 91
        1
 62
     0
 92
       -2
340
14
 93
        0
 40
0.045
309
GRIDFORMAT_END
 95
       32
302
GRIDFORMAT
  1
GRIDFORMAT_BEGIN
 90
        0
 91
        1
 62
     0
 92
       -2
340
14
 93
        0
 40
0.045
309
GRIDFORMAT_END
309
TABLEFORMAT_END
  1
CELLSTYLE_BEGIN
 90
        3
 91
        2
300
_DATA
309
CELLSTYLE_END
  0
XRECORD
  5
142
102
{ACAD_REACTORS
330
141
102
}
330
141
100
AcDbXrecord
280
     1
102
ACAD_ROUNDTRIP_PRE2007_TABLESTYLE
 90
        4
 91
        0
  1

 92
        4
 93
        0
  2

 94
        4
 95
        0
  3

  0
ENDSEC
  0
EOF
