  0
SECTION
  2
HEADER
  9
$ACADVER
  1
AC1018
  9
$ACADMAINTVER
 70
     0
  9
$DWGCODEPAGE
  3
ANSI_1252
  9
$INSBASE
 10
0.0
 20
0.0
 30
0.0
  9
$EXTMIN
 10
0.0
 20
0.0
 30
0.0
  9
$EXTMAX
 10
297.0
 20
210.0
 30
0.0
  9
$LIMMIN
 10
0.0
 20
0.0
  9
$LIMMAX
 10
297.0
 20
210.0
  9
$ORTHOMODE
 70
     0
  9
$REGENMODE
 70
     1
  9
$FILLMODE
 70
     1
  9
$QTEXTMODE
 70
     0
  9
$MIRRTEXT
 70
     1
  9
$LTSCALE
 40
1.0
  9
$ATTMODE
 70
     1
  9
$TEXTSIZE
 40
3.5
  9
$TRACEWID
 40
1.0
  9
$TEXTSTYLE
  7
Standard
  9
$CLAYER
  8
0
  9
$CELTYPE
  6
ByLayer
  9
$CECOLOR
 62
   256
  9
$CELTSCALE
 40
1.0
  9
$DISPSILH
 70
     0
  9
$DIMSCALE
 40
1.0
  9
$DIMASZ
 40
3.302
  9
$DIMEXO
 40
1.0
  9
$DIMDLI
 40
3.75
  9
$DIMRND
 40
0.0
  9
$DIMDLE
 40
0.0
  9
$DIMEXE
 40
1.0
  9
$DIMTP
 40
0.0
  9
$DIMTM
 40
0.0
  9
$DIMTXT
 40
3.5
  9
$DIMCEN
 40
2.5
  9
$DIMTSZ
 40
0.0
  9
$DIMTOL
 70
     0
  9
$DIMLIM
 70
     0
  9
$DIMTIH
 70
     1
  9
$DIMTOH
 70
     1
  9
$DIMSE1
 70
     0
  9
$DIMSE2
 70
     0
  9
$DIMTAD
 70
     1
  9
$DIMZIN
 70
     0
  9
$DIMBLK
  1

  9
$DIMASO
 70
     1
  9
$DIMSHO
 70
     1
  9
$DIMPOST
  1

  9
$DIMAPOST
  1

  9
$DIMALT
 70
     0
  9
$DIMALTD
 70
     3
  9
$DIMALTF
 40
0.0393700787
  9
$DIMLFAC
 40
1.0
  9
$DIMTOFL
 70
     1
  9
$DIMTVP
 40
0.0
  9
$DIMTIX
 70
     0
  9
$DIMSOXD
 70
     0
  9
$DIMSAH
 70
     0
  9
$DIMBLK1
  1

  9
$DIMBLK2
  1

  9
$DIMSTYLE
  2
ISO-25
  9
$DIMCLRD
 70
     0
  9
$DIMCLRE
 70
     0
  9
$DIMCLRT
 70
     0
  9
$DIMTFAC
 40
1.0
  9
$DIMGAP
 40
1.524
  9
$DIMJUST
 70
     0
  9
$DIMSD1
 70
     0
  9
$DIMSD2
 70
     0
  9
$DIMTOLJ
 70
     0
  9
$DIMTZIN
 70
     0
  9
$DIMALTZ
 70
     0
  9
$DIMALTTZ
 70
     0
  9
$DIMUPT
 70
     0
  9
$DIMDEC
 70
     2
  9
$DIMTDEC
 70
     2
  9
$DIMALTU
 70
     2
  9
$DIMALTTD
 70
     3
  9
$DIMTXSTY
  7
Standard
  9
$DIMAUNIT
 70
     0
  9
$DIMADEC
 70
     2
  9
$DIMALTRND
 40
0.0
  9
$DIMAZIN
 70
     0
  9
$DIMDSEP
 70
    44
  9
$DIMATFIT
 70
     3
  9
$DIMFRAC
 70
     0
  9
$DIMLDRBLK
  1

  9
$DIMLUNIT
 70
     2
  9
$DIMLWD
 70
    -2
  9
$DIMLWE
 70
    -2
  9
$DIMTMOVE
 70
     0
  9
$LUNITS
 70
     2
  9
$LUPREC
 70
     2
  9
$SKETCHINC
 40
1.0
  9
$FILLETRAD
 40
10.0
  9
$AUNITS
 70
     0
  9
$AUPREC
 70
     2
  9
$MENU
  1
.
  9
$ELEVATION
 40
0.0
  9
$PELEVATION
 40
0.0
  9
$THICKNESS
 40
0.0
  9
$LIMCHECK
 70
     0
  9
$CHAMFERA
 40
0.0
  9
$CHAMFERB
 40
0.0
  9
$CHAMFERC
 40
0.0
  9
$CHAMFERD
 40
0.0
  9
$SKPOLY
 70
     0
  9
$TDCREATE
 40
2457576.635742766
  9
$TDUCREATE
 40
2457576.552409433
  9
$TDUPDATE
 40
2457576.635743171
  9
$TDUUPDATE
 40
2457576.552409838
  9
$TDINDWG
 40
0.0000000116
  9
$TDUSRTIMER
 40
0.0000000116
  9
$USRTIMER
 70
     1
  9
$ANGBASE
 50
0.0
  9
$ANGDIR
 70
     0
  9
$PDMODE
 70
     0
  9
$PDSIZE
 40
-1.0
  9
$PLINEWID
 40
0.0
  9
$SPLFRAME
 70
     0
  9
$SPLINETYPE
 70
     6
  9
$SPLINESEGS
 70
     8
  9
$HANDSEED
  5
130
  9
$SURFTAB1
 70
     6
  9
$SURFTAB2
 70
     6
  9
$SURFTYPE
 70
     6
  9
$SURFU
 70
     6
  9
$SURFV
 70
     6
  9
$UCSBASE
  2

  9
$UCSNAME
  2

  9
$UCSORG
 10
0.0
 20
0.0
 30
0.0
  9
$UCSXDIR
 10
1.0
 20
0.0
 30
0.0
  9
$UCSYDIR
 10
0.0
 20
1.0
 30
0.0
  9
$UCSORTHOREF
  2

  9
$UCSORTHOVIEW
 70
     0
  9
$UCSORGTOP
 10
0.0
 20
0.0
 30
0.0
  9
$UCSORGBOTTOM
 10
0.0
 20
0.0
 30
0.0
  9
$UCSORGLEFT
 10
0.0
 20
0.0
 30
0.0
  9
$UCSORGRIGHT
 10
0.0
 20
0.0
 30
0.0
  9
$UCSORGFRONT
 10
0.0
 20
0.0
 30
0.0
  9
$UCSORGBACK
 10
0.0
 20
0.0
 30
0.0
  9
$PUCSBASE
  2

  9
$PUCSNAME
  2

  9
$PUCSORG
 10
0.0
 20
0.0
 30
0.0
  9
$PUCSXDIR
 10
1.0
 20
0.0
 30
0.0
  9
$PUCSYDIR
 10
0.0
 20
1.0
 30
0.0
  9
$PUCSORTHOREF
  2

  9
$PUCSORTHOVIEW
 70
     0
  9
$PUCSORGTOP
 10
0.0
 20
0.0
 30
0.0
  9
$PUCSORGBOTTOM
 10
0.0
 20
0.0
 30
0.0
  9
$PUCSORGLEFT
 10
0.0
 20
0.0
 30
0.0
  9
$PUCSORGRIGHT
 10
0.0
 20
0.0
 30
0.0
  9
$PUCSORGFRONT
 10
0.0
 20
0.0
 30
0.0
  9
$PUCSORGBACK
 10
0.0
 20
0.0
 30
0.0
  9
$USERI1
 70
     0
  9
$USERI2
 70
     0
  9
$USERI3
 70
     0
  9
$USERI4
 70
     0
  9
$USERI5
 70
     0
  9
$USERR1
 40
0.0
  9
$USERR2
 40
0.0
  9
$USERR3
 40
0.0
  9
$USERR4
 40
0.0
  9
$USERR5
 40
0.0
  9
$WORLDVIEW
 70
     1
  9
$SHADEDGE
 70
     3
  9
$SHADEDIF
 70
    70
  9
$TILEMODE
 70
     1
  9
$MAXACTVP
 70
    64
  9
$PINSBASE
 10
0.0
 20
0.0
 30
0.0
  9
$PLIMCHECK
 70
     0
  9
$PEXTMIN
 10
1.0000000000E+20
 20
1.0000000000E+20
 30
1.0000000000E+20
  9
$PEXTMAX
 10
-1.0000000000E+20
 20
-1.0000000000E+20
 30
-1.0000000000E+20
  9
$PLIMMIN
 10
0.0
 20
0.0
  9
$PLIMMAX
 10
420.0
 20
297.0
  9
$UNITMODE
 70
     0
  9
$VISRETAIN
 70
     1
  9
$PLINEGEN
 70
     0
  9
$PSLTSCALE
 70
     1
  9
$TREEDEPTH
 70
  3020
  9
$CMLSTYLE
  2
Standard
  9
$CMLJUST
 70
     0
  9
$CMLSCALE
 40
20.0
  9
$PROXYGRAPHICS
 70
     1
  9
$MEASUREMENT
 70
     1
  9
$CELWEIGHT
370
    -1
  9
$ENDCAPS
280
     0
  9
$JOINSTYLE
280
     0
  9
$LWDISPLAY
290
     1
  9
$INSUNITS
 70
     4
  9
$HYPERLINKBASE
  1

  9
$STYLESHEET
  1

  9
$XEDIT
290
     1
  9
$CEPSNTYPE
380
     0
  9
$PSTYLEMODE
290
     1
  9
$FINGERPRINTGUID
  2
{8435FD2E-CBDF-46FE-B1F6-819C7CBA332F}
  9
$VERSIONGUID
  2
{FAEB1C32-E019-11D5-929B-00C0DF256EC4}
  9
$EXTNAMES
290
     1
  9
$PSVPSCALE
 40
0.0
  9
$OLESTARTUP
290
     0
  9
$SORTENTS
280
   127
  9
$INDEXCTL
280
     0
  9
$HIDETEXT
280
     1
  9
$XCLIPFRAME
290
     0
  9
$HALOGAP
280
     0
  9
$OBSCOLOR
 70
   257
  9
$OBSLTYPE
280
     0
  9
$INTERSECTIONDISPLAY
280
     0
  9
$INTERSECTIONCOLOR
 70
   257
  9
$DIMASSOC
280
     2
  9
$PROJECTNAME
  1

  0
ENDSEC
  0
SECTION
  2
CLASSES
  0
CLASS
  1
ACDBDICTIONARYWDFLT
  2
AcDbDictionaryWithDefault
  3
ObjectDBX Classes
 90
        0
 91
        4
280
     0
281
     0
  0
CLASS
  1
VISUALSTYLE
  2
AcDbVisualStyle
  3
ObjectDBX Classes
 90
     4095
 91
        4
280
     0
281
     0
  0
CLASS
  1
MATERIAL
  2
AcDbMaterial
  3
ObjectDBX Classes
 90
     1153
 91
        4
280
     0
281
     0
  0
CLASS
  1
SCALE
  2
AcDbScale
  3
ObjectDBX Classes
 90
     1153
 91
        4
280
     0
281
     0
  0
CLASS
  1
TABLESTYLE
  2
AcDbTableStyle
  3
ObjectDBX Classes
 90
     4095
 91
        4
280
     0
281
     0
  0
CLASS
  1
MLEADERSTYLE
  2
AcDbMLeaderStyle
  3
ACDB_MLEADERSTYLE_CLASS
 90
     4095
 91
        4
280
     0
281
     0
  0
CLASS
  1
SUN
  2
AcDbSun
  3
SCENEOE
 90
     1153
 91
        4
280
     0
281
     0
  0
CLASS
  1
DICTIONARYVAR
  2
AcDbDictionaryVar
  3
ObjectDBX Classes
 90
        0
 91
        4
280
     0
281
     0
  0
CLASS
  1
CELLSTYLEMAP
  2
AcDbCellStyleMap
  3
ObjectDBX Classes
 90
     1152
 91
        4
280
     0
281
     0
  0
ENDSEC
  0
SECTION
  2
TABLES
  0
TABLE
  2
VPORT
  5
8
330
0
100
AcDbSymbolTable
 70
     1
  0
VPORT
  5
29
330
8
100
AcDbSymbolTableRecord
100
AcDbViewportTableRecord
  2
*Active
 70
     0
 10
0.0
 20
0.0
 11
1.0
 21
1.0
 12
148.5
 22
105.0
 13
0.0
 23
0.0
 14
10.0
 24
10.0
 15
10.0
 25
10.0
 16
0.0
 26
0.0
 36
1.0
 17
0.0
 27
0.0
 37
0.0
 40
210.0
 41
1.4142857143
 42
50.0
 43
0.0
 44
0.0
 50
0.0
 51
0.0
 71
     0
 72
  2000
 73
     1
 74
     3
 75
     0
 76
     0
 77
     0
 78
     0
281
     0
 65
     1
110
0.0
120
0.0
130
0.0
111
1.0
121
0.0
131
0.0
112
0.0
122
1.0
132
0.0
 79
     0
146
0.0
  0
ENDTAB
  0
TABLE
  2
LTYPE
  5
5
330
0
100
AcDbSymbolTable
 70
     8
  0
LTYPE
  5
14
330
5
100
AcDbSymbolTableRecord
100
AcDbLinetypeTableRecord
  2
ByBlock
 70
     0
  3

 72
    65
 73
     0
 40
0.0
  0
LTYPE
  5
15
330
5
100
AcDbSymbolTableRecord
100
AcDbLinetypeTableRecord
  2
ByLayer
 70
     0
  3

 72
    65
 73
     0
 40
0.0
  0
LTYPE
  5
16
330
5
100
AcDbSymbolTableRecord
100
AcDbLinetypeTableRecord
  2
Continuous
 70
     0
  3
Solid line
 72
    65
 73
     0
 40
0.0
  0
LTYPE
  5
6E
330
5
100
AcDbSymbolTableRecord
100
AcDbLinetypeTableRecord
  2
SLD-Durchgehend
 70
     0
  3
SolidWorks Line Style
 72
    65
 73
     0
 40
0.0
  0
LTYPE
  5
6F
330
5
100
AcDbSymbolTableRecord
100
AcDbLinetypeTableRecord
  2
SLD-Gestrichelt
 70
     0
  3
SolidWorks Line Style
 72
    65
 73
     2
 40
1.905
 49
1.27
 74
     0
 49
-0.635
 74
     0
  0
LTYPE
  5
70
330
5
100
AcDbSymbolTableRecord
100
AcDbLinetypeTableRecord
  2
SLD-Phantom
 70
     0
  3
SolidWorks Line Style
 72
    65
 73
     6
 40
12.7
 49
6.35
 74
     0
 49
-1.27
 74
     0
 49
1.27
 74
     0
 49
-1.27
 74
     0
 49
1.27
 74
     0
 49
-1.27
 74
     0
  0
LTYPE
  5
71
330
5
100
AcDbSymbolTableRecord
100
AcDbLinetypeTableRecord
  2
SLD-Kette
 70
     0
  3
SolidWorks Line Style
 72
    65
 73
     4
 40
10.16
 49
6.35
 74
     0
 49
-1.27
 74
     0
 49
1.27
 74
     0
 49
-1.27
 74
     0
  0
LTYPE
  5
72
330
5
100
AcDbSymbolTableRecord
100
AcDbLinetypeTableRecord
  2
SLD-Punktstrich
 70
     0
  3
SolidWorks Line Style
 72
    65
 73
     4
 40
19.05
 49
15.24
 74
     0
 49
-1.27
 74
     0
 49
1.27
 74
     0
 49
-1.27
 74
     0
  0
LTYPE
  5
73
330
5
100
AcDbSymbolTableRecord
100
AcDbLinetypeTableRecord
  2
SLD-Naht
 70
     0
  3
SolidWorks Line Style
 72
    65
 73
     2
 40
0.635
 49
0.0
 74
     0
 49
-0.635
 74
     0
  0
LTYPE
  5
74
330
5
100
AcDbSymbolTableRecord
100
AcDbLinetypeTableRecord
  2
SLD-Dicke-Dünne-Kette
 70
     0
  3
SolidWorks Line Style
 72
    65
 73
     4
 40
10.16
 49
6.35
 74
     0
 49
-1.27
 74
     0
 49
1.27
 74
     0
 49
-1.27
 74
     0
  0
ENDTAB
  0
TABLE
  2
LAYER
  5
2
330
0
100
AcDbSymbolTable
 70
     3
  0
LAYER
  5
10
330
2
100
AcDbSymbolTableRecord
100
AcDbLayerTableRecord
  2
0
 70
     0
 62
     7
  6
Continuous
370
    -3
390
F
  0
LAYER
  5
75
330
2
100
AcDbSymbolTableRecord
100
AcDbLayerTableRecord
  2
1
 70
     0
 62
     4
  6
Continuous
370
    -1
390
F
  0
LAYER
  5
76
330
2
100
AcDbSymbolTableRecord
100
AcDbLayerTableRecord
  2
2
 70
     0
 62
     7
  6
SLD-Durchgehend
370
    -3
390
F
  0
ENDTAB
  0
TABLE
  2
STYLE
  5
3
330
0
100
AcDbSymbolTable
 70
     2
  0
STYLE
  5
11
330
3
100
AcDbSymbolTableRecord
100
AcDbTextStyleTableRecord
  2
Standard
 70
     0
 40
0.0
 41
1.0
 50
0.0
 71
     0
 42
3.5
  3
txt
  4

  0
STYLE
  5
F4
330
3
100
AcDbSymbolTableRecord
100
AcDbTextStyleTableRecord
  2
SLDTEXTSTYLE0
 70
     0
 40
0.0
 41
0.75
 50
0.0
 71
     0
 42
3.5
  3
TXT
  4

  0
ENDTAB
  0
TABLE
  2
VIEW
  5
6
330
0
100
AcDbSymbolTable
 70
     0
  0
ENDTAB
  0
TABLE
  2
UCS
  5
7
330
0
100
AcDbSymbolTable
 70
     0
  0
ENDTAB
  0
TABLE
  2
APPID
  5
9
330
0
100
AcDbSymbolTable
 70
     2
  0
APPID
  5
12
330
9
100
AcDbSymbolTableRecord
100
AcDbRegAppTableRecord
  2
ACAD
 70
     0
  0
APPID
  5
12A
330
9
100
AcDbSymbolTableRecord
100
AcDbRegAppTableRecord
  2
ACAD_MLEADERVER
 70
     0
  0
ENDTAB
  0
TABLE
  2
DIMSTYLE
  5
A
330
0
100
AcDbSymbolTable
 70
     2
100
AcDbDimStyleTable
  0
DIMSTYLE
105
27
330
A
100
AcDbSymbolTableRecord
100
AcDbDimStyleTableRecord
  2
ISO-25
 70
     0
 41
2.5
 42
0.625
 43
3.75
 44
1.25
 73
     0
 74
     0
 77
     1
 78
     8
140
2.5
141
2.5
143
0.0393700787
147
0.625
171
     3
172
     1
178
     0
271
     2
272
     2
274
     3
278
    44
283
     0
284
     8
340
11
  0
DIMSTYLE
105
F5
102
{ACAD_REACTORS
330
F3
330
FF
330
109
330
114
102
}
330
A
100
AcDbSymbolTableRecord
100
AcDbDimStyleTableRecord
  2
SLDDIMSTYLE0
 70
     0
 41
3.302
 44
0.0
 45
0.000000001
 73
     0
 74
     0
 77
     1
 78
    12
 79
     3
140
3.5
147
0.875
173
     1
178
     0
271
     2
272
     2
276
     2
284
    12
340
F4
  0
ENDTAB
  0
TABLE
  2
BLOCK_RECORD
  5
1
330
0
100
AcDbSymbolTable
 70
     5
  0
BLOCK_RECORD
  5
1F
330
1
100
AcDbSymbolTableRecord
100
AcDbBlockTableRecord
  2
*Model_Space
340
22
  0
BLOCK_RECORD
  5
1B
330
1
100
AcDbSymbolTableRecord
100
AcDbBlockTableRecord
  2
*Paper_Space
340
1E
  0
BLOCK_RECORD
  5
23
330
1
100
AcDbSymbolTableRecord
100
AcDbBlockTableRecord
  2
*Paper_Space0
340
26
  0
BLOCK_RECORD
  5
F6
330
1
100
AcDbSymbolTableRecord
100
AcDbBlockTableRecord
  2
_D
340
0
  0
BLOCK_RECORD
  5
100
330
1
100
AcDbSymbolTableRecord
100
AcDbBlockTableRecord
  2
_D_1
340
0
  0
BLOCK_RECORD
  5
10A
330
1
100
AcDbSymbolTableRecord
100
AcDbBlockTableRecord
  2
_D_2
340
0
  0
BLOCK_RECORD
  5
115
330
1
100
AcDbSymbolTableRecord
100
AcDbBlockTableRecord
  2
_D_3
340
0
  0
ENDTAB
  0
ENDSEC
  0
SECTION
  2
BLOCKS
  0
BLOCK
  5
20
330
1F
100
AcDbEntity
  8
0
100
AcDbBlockBegin
  2
*Model_Space
 70
     0
 10
0.0
 20
0.0
 30
0.0
  3
*Model_Space
  1

  0
ENDBLK
  5
21
330
1F
100
AcDbEntity
  8
0
100
AcDbBlockEnd
  0
BLOCK
  5
1C
330
1B
100
AcDbEntity
 67
     1
  8
0
100
AcDbBlockBegin
  2
*Paper_Space
 70
     0
 10
0.0
 20
0.0
 30
0.0
  3
*Paper_Space
  1

  0
ENDBLK
  5
1D
330
1B
100
AcDbEntity
 67
     1
  8
0
100
AcDbBlockEnd
  0
BLOCK
  5
24
330
23
100
AcDbEntity
  8
0
100
AcDbBlockBegin
  2
*Paper_Space0
 70
     0
 10
0.0
 20
0.0
 30
0.0
  3
*Paper_Space0
  1

  0
ENDBLK
  5
25
330
23
100
AcDbEntity
  8
0
100
AcDbBlockEnd
  0
BLOCK
  5
F7
330
F6
100
AcDbEntity
  8
0
100
AcDbBlockBegin
  2
_D
 70
     0
 10
0.0
 20
0.0
 30
0.0
  3
_D
  1

  0
SOLID
  5
F9
330
F6
100
AcDbEntity
  8
2
 62
     7
420
 16777215
100
AcDbTrace
 10
100.0005014752
 20
42.000169776
 30
0.0
 11
96.6985014752
 21
42.508169776
 31
0.0
 12
96.6985014752
 22
41.492169776
 32
0.0
 13
96.6985014752
 23
41.492169776
 33
0.0
  0
SOLID
  5
FA
330
F6
100
AcDbEntity
  8
2
 62
     7
420
 16777215
100
AcDbTrace
 10
0.0005014752
 20
42.000169776
 30
0.0
 11
3.3025014752
 21
41.492169776
 31
0.0
 12
3.3025014752
 22
42.508169776
 32
0.0
 13
3.3025014752
 23
42.508169776
 33
0.0
  0
LINE
  5
FB
330
F6
100
AcDbEntity
  8
2
 62
     7
420
 16777215
100
AcDbLine
 10
100.0005014752
 20
1.000169776
 30
0.0
 11
100.0005014752
 21
43.000169776
 31
0.0
  0
LINE
  5
FC
330
F6
100
AcDbEntity
  8
2
 62
     7
420
 16777215
100
AcDbLine
 10
0.0005014752
 20
1.000169776
 30
0.0
 11
0.0005014752
 21
43.000169776
 31
0.0
  0
LINE
  5
FD
330
F6
100
AcDbEntity
  8
2
 62
     7
420
 16777215
100
AcDbLine
 10
100.0005014752
 20
42.000169776
 30
0.0
 11
0.0005014752
 21
42.000169776
 31
0.0
  0
MTEXT
  5
FE
330
F6
100
AcDbEntity
  8
2
 62
     7
420
 16777215
100
AcDbMText
 10
46.1213348013
 20
46.5119066905
 30
0.0
 40
3.5
 41
0.0
 71
     1
 72
     1
  1
100
  7
SLDTEXTSTYLE0
 73
     1
 44
1.0
  0
ENDBLK
  5
F8
330
F6
100
AcDbEntity
  8
0
100
AcDbBlockEnd
  0
BLOCK
  5
101
330
100
100
AcDbEntity
  8
0
100
AcDbBlockBegin
  2
_D_1
 70
     0
 10
0.0
 20
0.0
 30
0.0
  3
_D_1
  1

  0
SOLID
  5
103
330
100
100
AcDbEntity
  8
2
 62
     7
420
 16777215
100
AcDbTrace
 10
-68.3994985248
 20
48.000169776
 30
0.0
 11
-65.0974985248
 21
47.492169776
 31
0.0
 12
-65.0974985248
 22
48.508169776
 32
0.0
 13
-65.0974985248
 23
48.508169776
 33
0.0
  0
SOLID
  5
104
330
100
100
AcDbEntity
  8
2
 62
     7
420
 16777215
100
AcDbTrace
 10
100.0005014752
 20
48.000169776
 30
0.0
 11
96.6985014752
 21
48.508169776
 31
0.0
 12
96.6985014752
 22
47.492169776
 32
0.0
 13
96.6985014752
 23
47.492169776
 33
0.0
  0
LINE
  5
105
330
100
100
AcDbEntity
  8
2
 62
     7
420
 16777215
100
AcDbLine
 10
-68.3994985248
 20
1.000169776
 30
0.0
 11
-68.3994985248
 21
49.000169776
 31
0.0
  0
LINE
  5
106
330
100
100
AcDbEntity
  8
2
 62
     7
420
 16777215
100
AcDbLine
 10
100.0005014752
 20
1.000169776
 30
0.0
 11
100.0005014752
 21
49.000169776
 31
0.0
  0
LINE
  5
107
330
100
100
AcDbEntity
  8
2
 62
     7
420
 16777215
100
AcDbLine
 10
-68.3994985248
 20
48.000169776
 30
0.0
 11
100.0005014752
 21
48.000169776
 31
0.0
  0
MTEXT
  5
108
330
100
100
AcDbEntity
  8
2
 62
     7
420
 16777215
100
AcDbMText
 10
8.6886955184
 20
52.5119066905
 30
0.0
 40
3.5
 41
0.0
 71
     1
 72
     1
  1
168,40
  7
SLDTEXTSTYLE0
 73
     1
 44
1.0
  0
ENDBLK
  5
102
330
100
100
AcDbEntity
  8
0
100
AcDbBlockEnd
  0
BLOCK
  5
10B
330
10A
100
AcDbEntity
  8
0
100
AcDbBlockBegin
  2
_D_2
 70
     0
 10
0.0
 20
0.0
 30
0.0
  3
_D_2
  1

  0
SOLID
  5
10D
330
10A
100
AcDbEntity
  8
2
 62
     7
420
 16777215
100
AcDbTrace
 10
106.0005014752
 20
16.000169776
 30
0.0
 11
105.4925014752
 21
12.698169776
 31
0.0
 12
106.5085014752
 22
12.698169776
 32
0.0
 13
106.5085014752
 23
12.698169776
 33
0.0
  0
SOLID
  5
10E
330
10A
100
AcDbEntity
  8
2
 62
     7
420
 16777215
100
AcDbTrace
 10
106.0005014752
 20
-15.999830224
 30
0.0
 11
106.5085014752
 21
-12.697830224
 31
0.0
 12
105.4925014752
 22
-12.697830224
 32
0.0
 13
105.4925014752
 23
-12.697830224
 33
0.0
  0
LINE
  5
10F
330
10A
100
AcDbEntity
  8
2
 62
     7
420
 16777215
100
AcDbLine
 10
100.5005014752
 20
16.000169776
 30
0.0
 11
107.0005014752
 21
16.000169776
 31
0.0
  0
LINE
  5
110
330
10A
100
AcDbEntity
  8
2
 62
     7
420
 16777215
100
AcDbLine
 10
100.5005014752
 20
-15.999830224
 30
0.0
 11
107.0005014752
 21
-15.999830224
 31
0.0
  0
LINE
  5
111
330
10A
100
AcDbEntity
  8
2
 62
     7
420
 16777215
100
AcDbLine
 10
106.0005014752
 20
16.000169776
 30
0.0
 11
106.0005014752
 21
-15.999830224
 31
0.0
  0
MTEXT
  5
112
330
10A
100
AcDbEntity
  8
2
 62
     7
420
 16777215
100
AcDbMText
 10
101.488764386
 20
-5.2251603496
 30
0.0
 40
3.5
 41
0.0
 71
     1
 72
     1
  1
%%c
  7
SLDTEXTSTYLE0
 11
-7.044195017643634E-15
 21
1.0
 31
0.0
 73
     1
 44
1.0
  0
MTEXT
  5
113
330
10A
100
AcDbEntity
  8
2
 62
     7
420
 16777215
100
AcDbMText
 10
101.4352922093
 20
0.0532770488
 30
0.0
 40
3.5
 41
0.0
 71
     1
 72
     1
  1
32
  7
SLDTEXTSTYLE0
 11
-7.044195017643634E-15
 21
1.0
 31
0.0
 73
     1
 44
1.0
  0
ENDBLK
  5
10C
330
10A
100
AcDbEntity
  8
0
100
AcDbBlockEnd
  0
BLOCK
  5
116
330
115
100
AcDbEntity
  8
0
100
AcDbBlockBegin
  2
_D_3
 70
     0
 10
0.0
 20
0.0
 30
0.0
  3
_D_3
  1

  0
SOLID
  5
118
330
115
100
AcDbEntity
  8
2
 62
     7
420
 16777215
100
AcDbTrace
 10
112.0005014752
 20
36.000169776
 30
0.0
 11
111.4925014752
 21
32.698169776
 31
0.0
 12
112.5085014752
 22
32.698169776
 32
0.0
 13
112.5085014752
 23
32.698169776
 33
0.0
  0
SOLID
  5
119
330
115
100
AcDbEntity
  8
2
 62
     7
420
 16777215
100
AcDbTrace
 10
112.0005014752
 20
-35.999830224
 30
0.0
 11
112.5085014752
 21
-32.697830224
 31
0.0
 12
111.4925014752
 22
-32.697830224
 32
0.0
 13
111.4925014752
 23
-32.697830224
 33
0.0
  0
LINE
  5
11A
330
115
100
AcDbEntity
  8
2
 62
     7
420
 16777215
100
AcDbLine
 10
92.0005014752
 20
36.000169776
 30
0.0
 11
113.0005014752
 21
36.000169776
 31
0.0
  0
LINE
  5
11B
330
115
100
AcDbEntity
  8
2
 62
     7
420
 16777215
100
AcDbLine
 10
92.0005014752
 20
-35.999830224
 30
0.0
 11
113.0005014752
 21
-35.999830224
 31
0.0
  0
LINE
  5
11C
330
115
100
AcDbEntity
  8
2
 62
     7
420
 16777215
100
AcDbLine
 10
112.0005014752
 20
36.000169776
 30
0.0
 11
112.0005014752
 21
-35.999830224
 31
0.0
  0
MTEXT
  5
11D
330
115
100
AcDbEntity
  8
2
 62
     7
420
 16777215
100
AcDbMText
 10
107.488764386
 20
-5.2251603496
 30
0.0
 40
3.5
 41
0.0
 71
     1
 72
     1
  1
%%c
  7
SLDTEXTSTYLE0
 11
-7.044195017643634E-15
 21
1.0
 31
0.0
 73
     1
 44
1.0
  0
MTEXT
  5
11E
330
115
100
AcDbEntity
  8
2
 62
     7
420
 16777215
100
AcDbMText
 10
107.4352922093
 20
0.0532770488
 30
0.0
 40
3.5
 41
0.0
 71
     1
 72
     1
  1
72
  7
SLDTEXTSTYLE0
 11
-7.044195017643634E-15
 21
1.0
 31
0.0
 73
     1
 44
1.0
  0
ENDBLK
  5
117
330
115
100
AcDbEntity
  8
0
100
AcDbBlockEnd
  0
ENDSEC
  0
SECTION
  2
ENTITIES
  0
LINE
  5
77
330
1F
100
AcDbEntity
  8
0
  6
SLD-Punktstrich
 62
     7
100
AcDbLine
 10
-68.3994985248
 20
0.000169776
 30
0.0
 11
100.0005014752
 21
0.000169776
 31
0.0
  0
POINT
  5
78
330
1F
100
AcDbEntity
  8
1
 62
     4
420
    65535
100
AcDbPoint
 10
0.0005014752
 20
0.000169776
 30
0.0
  0
POINT
  5
79
330
1F
100
AcDbEntity
  8
1
 62
     4
420
    65535
100
AcDbPoint
 10
80.0005014752
 20
0.000169776
 30
0.0
  0
POINT
  5
7A
330
1F
100
AcDbEntity
  8
1
 62
     4
420
    65535
100
AcDbPoint
 10
100.0005014752
 20
0.000169776
 30
0.0
  0
LINE
  5
7B
330
1F
100
AcDbEntity
  8
1
 62
     4
420
    65535
100
AcDbLine
 10
27.1314257723
 20
-35.999830224
 30
0.0
 11
91.0005014752
 21
-35.999830224
 31
0.0
  0
LINE
  5
7C
330
1F
100
AcDbEntity
  8
1
 62
     4
420
    65535
100
AcDbLine
 10
37.7642890323
 20
36.000169776
 30
0.0
 11
27.1314257723
 21
36.000169776
 31
0.0
  0
LINE
  5
7D
330
1F
100
AcDbEntity
  8
1
 62
     4
420
    65535
100
AcDbLine
 10
65.7642890323
 20
36.000169776
 30
0.0
 11
58.2505014752
 21
36.000169776
 31
0.0
  0
LINE
  5
7E
330
1F
100
AcDbEntity
  8
1
 62
     4
420
    65535
100
AcDbLine
 10
91.0005014752
 20
36.000169776
 30
0.0
 11
86.2505014752
 21
36.000169776
 31
0.0
  0
LINE
  5
7F
330
1F
100
AcDbEntity
  8
1
 62
     4
420
    65535
100
AcDbLine
 10
91.0005014752
 20
-35.999830224
 30
0.0
 11
100.0005014752
 21
-26.999830224
 31
0.0
  0
LINE
  5
80
330
1F
100
AcDbEntity
  8
1
 62
     4
420
    65535
100
AcDbLine
 10
100.0005014752
 20
27.000169776
 30
0.0
 11
91.0005014752
 21
36.000169776
 31
0.0
  0
LINE
  5
81
330
1F
100
AcDbEntity
  8
1
 62
     4
420
    65535
100
AcDbLine
 10
1.6005014752
 20
22.4537382879
 30
0.0
 11
-67.3692020302
 21
12.6010492245
 31
0.0
  0
LINE
  5
82
330
1F
100
AcDbEntity
  8
1
 62
     4
420
    65535
100
AcDbLine
 10
-67.3692020302
 20
-12.6007096726
 30
0.0
 11
1.6005014752
 21
-22.453398736
 31
0.0
  0
ARC
  5
83
330
1F
100
AcDbEntity
  8
1
 62
     4
420
    65535
100
AcDbCircle
 10
1.7005014752
 20
-22.433398736
 30
0.0
 40
0.100000000000003
100
AcDbArc
 50
90.0
 51
180.0
  0
ARC
  5
84
330
1F
100
AcDbEntity
  8
1
 62
     4
420
    65535
100
AcDbCircle
 10
1.7005014752
 20
22.4337382879
 30
0.0
 40
0.100000000000003
100
AcDbArc
 50
180.0
 51
270.0
  0
ARC
  5
85
330
1F
100
AcDbEntity
  8
1
 62
     4
420
    65535
100
AcDbCircle
 10
3.1005014752
 20
-22.433398736
 30
0.0
 40
0.1000000000000028
100
AcDbArc
 50
0.0
 51
90.0
  0
ARC
  5
86
330
1F
100
AcDbEntity
  8
1
 62
     4
420
    65535
100
AcDbCircle
 10
3.1005014752
 20
22.4337382879
 30
0.0
 40
0.1000000000000028
100
AcDbArc
 50
270.0
 51
0.0
  0
LINE
  5
87
330
1F
100
AcDbEntity
  8
1
 62
     4
420
    65535
100
AcDbLine
 10
1.7005014752
 20
-22.333398736
 30
0.0
 11
3.1005014752
 21
-22.333398736
 31
0.0
  0
LINE
  5
88
330
1F
100
AcDbEntity
  8
1
 62
     4
420
    65535
100
AcDbLine
 10
3.1005014752
 20
22.3337382879
 30
0.0
 11
1.7005014752
 21
22.3337382879
 31
0.0
  0
ARC
  5
89
330
1F
100
AcDbEntity
  8
1
 62
     4
420
    65535
100
AcDbCircle
 10
-67.1994985248
 20
-11.4127699771
 30
0.0
 40
1.200000000000003
100
AcDbArc
 50
180.0
 51
261.87
  0
ARC
  5
8A
330
1F
100
AcDbEntity
  8
1
 62
     4
420
    65535
100
AcDbCircle
 10
-67.1994985248
 20
11.413109529
 30
0.0
 40
1.200000000000003
100
AcDbArc
 50
98.13
 51
180.0
  0
SPLINE
  5
8B
330
1F
100
AcDbEntity
  8
1
 62
     4
420
    65535
100
AcDbSpline
210
0.0
220
0.0
230
1.0
 70
     8
 71
     3
 72
    17
 73
    13
 74
     0
 42
0.000000001
 43
0.00000001
 40
0.0
 40
0.0
 40
0.0
 40
0.0
 40
0.0253435918958783
 40
0.1398835643347772
 40
0.2499433715105066
 40
0.3631067048138815
 40
0.4748428686776739
 40
0.5896987699585517
 40
0.7035092906769457
 40
0.8206542106933105
 40
0.9095139633674734
 40
1.0
 40
1.0
 40
1.0
 40
1.0
 10
27.13142577226094
 20
-35.99557759482331
 30
0.0
 10
27.13725256365307
 20
-35.99687642592485
 30
0.0
 10
27.16941344881548
 20
-36.00404530414463
 30
0.0
 10
27.00812208772552
 20
-35.96792841076979
 30
0.0
 10
26.64215967222826
 20
-35.88863334822658
 30
0.0
 10
26.05897072170991
 20
-35.76950232126838
 30
0.0
 10
25.28298866962887
 20
-35.62539418501324
 30
0.0
 10
24.33386021045403
 20
-35.47151742750243
 30
0.0
 10
23.22165293912163
 20
-35.32282592295578
 30
0.0
 10
22.08049764840022
 20
-35.20886838786231
 30
0.0
 10
20.95925078333643
 20
-35.13091661274087
 30
0.0
 10
20.25554494844712
 20
-35.10862150931179
 30
0.0
 10
19.90050147516307
 20
-35.09737287306886
 30
0.0
  0
LINE
  5
8C
330
1F
100
AcDbEntity
  8
1
 62
     4
420
    65535
100
AcDbLine
 10
19.9005014752
 20
-35.0973728731
 30
0.0
 11
19.9005014752
 21
35.097712425
 31
0.0
  0
SPLINE
  5
8D
330
1F
100
AcDbEntity
  8
1
 62
     4
420
    65535
100
AcDbSpline
210
0.0
220
0.0
230
1.0
 70
     8
 71
     3
 72
    16
 73
    12
 74
     0
 42
0.000000001
 43
0.00000001
 40
0.0
 40
0.0
 40
0.0
 40
0.0
 40
0.1117205234114116
 40
0.2267401407909495
 40
0.3384427003344906
 40
0.4532872716173379
 40
0.5667342326651799
 40
0.6834521912879105
 40
0.7970558667283046
 40
0.9140905606927515
 40
1.0
 40
1.0
 40
1.0
 40
1.0
 10
19.90050147516308
 20
35.09771242497747
 30
0.0
 10
20.33850519309857
 20
35.11252944985148
 30
0.0
 10
21.22744682744744
 20
35.14260104460821
 30
0.0
 10
22.487093936952
 20
35.24527598148465
 30
0.0
 10
23.66244439920613
 20
35.37801893133145
 30
0.0
 10
24.70503967590254
 20
35.52909473609763
 30
0.0
 10
25.60443970056857
 20
35.68328967242624
 30
0.0
 10
26.31968490732082
 20
35.82191524174822
 30
0.0
 10
26.82869465337318
 20
35.92884855094901
 30
0.0
 10
27.11477968601634
 20
35.99214959782021
 30
0.0
 10
27.1264749734075
 20
35.99479662046777
 30
0.0
 10
27.13142577226094
 20
35.99591714673191
 30
0.0
  0
LINE
  5
8E
330
1F
100
AcDbEntity
  8
1
 62
     4
420
    65535
100
AcDbLine
 10
91.0005014752
 20
-35.999830224
 30
0.0
 11
91.0005014752
 21
36.000169776
 31
0.0
  0
SPLINE
  5
8F
330
1F
100
AcDbEntity
  8
1
 62
     4
420
    65535
100
AcDbSpline
210
0.0
220
0.0
230
1.0
 70
     8
 71
     3
 72
    26
 73
    22
 74
     0
 42
0.000000001
 43
0.00000001
 40
0.0
 40
0.0
 40
0.0
 40
0.0
 40
0.0514833348882712
 40
0.1044955390488548
 40
0.1559692151157926
 40
0.2088717081714235
 40
0.261559937777729
 40
0.315715306412176
 40
0.3693835758375488
 40
0.4246852858609877
 40
0.4769614774044353
 40
0.5308562617844412
 40
0.5815125929573461
 40
0.6336060030959304
 40
0.684942996338749
 40
0.7376651500120017
 40
0.7908871133198844
 40
0.845632026174843
 40
0.8990819040207196
 40
0.9541841601965607
 40
1.0
 40
1.0
 40
1.0
 40
1.0
 10
86.25050147516308
 20
36.00016977595429
 30
0.0
 10
86.22430594157687
 20
35.99266667939683
 30
0.0
 10
86.17113696158165
 20
35.97743767138852
 30
0.0
 10
85.74436979866788
 20
35.85804951606227
 30
0.0
 10
85.07215630663501
 20
35.67987269937151
 30
0.0
 10
84.15529092748412
 20
35.45577496731501
 30
0.0
 10
83.002763574472
 20
35.20621871626847
 30
0.0
 10
81.64848203694322
 20
34.95947996147576
 30
0.0
 10
80.10700690921266
 20
34.74129019546871
 30
0.0
 10
78.45806013732168
 20
34.58370994660149
 30
0.0
 10
76.73234881558122
 20
34.50356712957389
 30
0.0
 10
75.03321435306337
 20
34.50987183018714
 30
0.0
 10
73.36632604926469
 20
34.59808860175077
 30
0.0
 10
71.79985989360758
 20
34.75387496207598
 30
0.0
 10
70.32949324947532
 20
34.96390120096358
 30
0.0
 10
69.00246896843534
 20
35.20545140463503
 30
0.0
 10
67.84097477384205
 20
35.45662285483984
 30
0.0
 10
66.90091322211047
 20
35.6868466396181
 30
0.0
 10
66.217520206683
 20
35.86868624955588
 30
0.0
 10
65.8131677386285
 20
35.98224063896023
 30
0.0
 10
65.77955079819236
 20
35.99188325576549
 30
0.0
 10
65.7642890322746
 20
35.99626091056118
 30
0.0
  0
SPLINE
  5
90
330
1F
100
AcDbEntity
  8
1
 62
     4
420
    65535
100
AcDbSpline
210
0.0
220
0.0
230
1.0
 70
     8
 71
     3
 72
    26
 73
    22
 74
     0
 42
0.000000001
 43
0.00000001
 40
0.0
 40
0.0
 40
0.0
 40
0.0
 40
0.0514833348882712
 40
0.1044955390488548
 40
0.1559692151157926
 40
0.2088717081714236
 40
0.2615599377777292
 40
0.315715306412176
 40
0.3693835758375488
 40
0.4246852858609873
 40
0.476961477404435
 40
0.5308562617844415
 40
0.5815125929573459
 40
0.6336060030959302
 40
0.6849429963387493
 40
0.7376651500120018
 40
0.7908871133198844
 40
0.8456320261748429
 40
0.8990819040207193
 40
0.9541841601965602
 40
1.0
 40
1.0
 40
1.0
 40
1.0
 10
58.25050147516308
 20
36.00016977595429
 30
0.0
 10
58.22430594157689
 20
35.99266667939683
 30
0.0
 10
58.17113696158168
 20
35.97743767138854
 30
0.0
 10
57.74436979866785
 20
35.85804951606227
 30
0.0
 10
57.07215630663501
 20
35.67987269937151
 30
0.0
 10
56.15529092748412
 20
35.45577496731501
 30
0.0
 10
55.00276357447204
 20
35.20621871626849
 30
0.0
 10
53.64848203694318
 20
34.95947996147575
 30
0.0
 10
52.10700690921267
 20
34.74129019546872
 30
0.0
 10
50.45806013732166
 20
34.58370994660148
 30
0.0
 10
48.73234881558123
 20
34.50356712957388
 30
0.0
 10
47.03321435306336
 20
34.50987183018714
 30
0.0
 10
45.36632604926466
 20
34.59808860175076
 30
0.0
 10
43.79985989360755
 20
34.75387496207598
 30
0.0
 10
42.32949324947536
 20
34.96390120096359
 30
0.0
 10
41.00246896843532
 20
35.20545140463503
 30
0.0
 10
39.84097477384205
 20
35.45662285483985
 30
0.0
 10
38.90091322211045
 20
35.6868466396181
 30
0.0
 10
38.21752020668301
 20
35.86868624955587
 30
0.0
 10
37.81316773862851
 20
35.98224063896022
 30
0.0
 10
37.77955079819236
 20
35.99188325576549
 30
0.0
 10
37.76428903227458
 20
35.99626091056118
 30
0.0
  0
LINE
  5
91
330
1F
100
AcDbEntity
  8
1
 62
     4
420
    65535
100
AcDbLine
 10
100.0005014752
 20
-26.999830224
 30
0.0
 11
100.0005014752
 21
27.000169776
 31
0.0
  0
LINE
  5
92
330
1F
100
AcDbEntity
  8
1
 62
     4
420
    65535
100
AcDbLine
 10
19.1005014752
 20
-34.2669792155
 30
0.0
 11
19.1005014752
 21
34.2673187674
 31
0.0
  0
SPLINE
  5
93
330
1F
100
AcDbEntity
  8
1
 62
     4
420
    65535
100
AcDbSpline
210
0.0
220
0.0
230
1.0
 70
     8
 71
     3
 72
     8
 73
     4
 74
     0
 42
0.000000001
 43
0.00000001
 40
0.0
 40
0.0
 40
0.0
 40
0.0
 40
1.0
 40
1.0
 40
1.0
 40
1.0
 10
19.10050147516307
 20
34.26731876737171
 30
0.0
 10
19.36893119209431
 20
34.54305591837736
 30
0.0
 10
19.63554294259107
 20
34.81990169343551
 30
0.0
 10
19.90050147516307
 20
35.09771242497746
 30
0.0
  0
SPLINE
  5
94
330
1F
100
AcDbEntity
  8
1
 62
     4
420
    65535
100
AcDbSpline
210
0.0
220
0.0
230
1.0
 70
     8
 71
     3
 72
     8
 73
     4
 74
     0
 42
0.000000001
 43
0.00000001
 40
0.0
 40
0.0
 40
0.0
 40
0.0
 40
1.0
 40
1.0
 40
1.0
 40
1.0
 10
19.90050147516308
 20
-35.09737287306886
 30
0.0
 10
19.63554294259107
 20
-34.81956214152691
 30
0.0
 10
19.36893119209431
 20
-34.54271636646875
 30
0.0
 10
19.10050147516307
 20
-34.2669792154631
 30
0.0
  0
LINE
  5
95
330
1F
100
AcDbEntity
  8
1
 62
     4
420
    65535
100
AcDbLine
 10
7.5642310764
 20
-30.7382121756
 30
0.0
 11
7.5642310764
 21
30.7385517275
 31
0.0
  0
SPLINE
  5
96
330
1F
100
AcDbEntity
  8
1
 62
     4
420
    65535
100
AcDbSpline
210
0.0
220
0.0
230
1.0
 70
     8
 71
     3
 72
     8
 73
     4
 74
     0
 42
0.000000001
 43
0.00000001
 40
0.0
 40
0.0
 40
0.0
 40
0.0
 40
1.0
 40
1.0
 40
1.0
 40
1.0
 10
7.564231076376625
 20
30.73855172751447
 30
0.0
 10
8.119438232806363
 20
29.74447423867599
 30
0.0
 10
8.673350095424832
 20
28.74965233462859
 30
0.0
 10
9.225501475163066
 20
27.75388145661119
 30
0.0
  0
LINE
  5
97
330
1F
100
AcDbEntity
  8
1
 62
     4
420
    65535
100
AcDbLine
 10
9.2255014752
 20
-27.7535419047
 30
0.0
 11
9.2255014752
 21
27.7538814566
 31
0.0
  0
SPLINE
  5
98
330
1F
100
AcDbEntity
  8
1
 62
     4
420
    65535
100
AcDbSpline
210
0.0
220
0.0
230
1.0
 70
     8
 71
     3
 72
     8
 73
     4
 74
     0
 42
0.000000001
 43
0.00000001
 40
0.0
 40
0.0
 40
0.0
 40
0.0
 40
1.0
 40
1.0
 40
1.0
 40
1.0
 10
9.225501475163066
 20
-27.75354190470258
 30
0.0
 10
8.673350693777344
 20
-28.7493117036282
 30
0.0
 10
8.119444838085862
 20
-29.74412286026338
 30
0.0
 10
7.564231076376625
 20
-30.73821217560586
 30
0.0
  0
LINE
  5
99
330
1F
100
AcDbEntity
  8
1
 62
     4
420
    65535
100
AcDbLine
 10
3.2005014752
 20
-30.7382121756
 30
0.0
 11
3.2005014752
 21
30.7385517275
 31
0.0
  0
LINE
  5
9A
330
1F
100
AcDbEntity
  8
1
 62
     4
420
    65535
100
AcDbLine
 10
3.2005014752
 20
30.7385517275
 30
0.0
 11
7.5642310764
 21
30.7385517275
 31
0.0
  0
LINE
  5
9B
330
1F
100
AcDbEntity
  8
1
 62
     4
420
    65535
100
AcDbLine
 10
7.5642310764
 20
-30.7382121756
 30
0.0
 11
3.2005014752
 21
-30.7382121756
 31
0.0
  0
LINE
  5
9C
330
1F
100
AcDbEntity
  8
1
 62
     4
420
    65535
100
AcDbLine
 10
14.6367718739
 20
-30.7382121756
 30
0.0
 11
14.6367718739
 21
30.7385517275
 31
0.0
  0
LINE
  5
9D
330
1F
100
AcDbEntity
  8
1
 62
     4
420
    65535
100
AcDbLine
 10
14.6367718739
 20
30.7385517275
 30
0.0
 11
19.1005014752
 21
30.7385517275
 31
0.0
  0
LINE
  5
9E
330
1F
100
AcDbEntity
  8
1
 62
     4
420
    65535
100
AcDbLine
 10
19.1005014752
 20
-30.7382121756
 30
0.0
 11
14.6367718739
 21
-30.7382121756
 31
0.0
  0
LINE
  5
9F
330
1F
100
AcDbEntity
  8
1
 62
     4
420
    65535
100
AcDbLine
 10
12.9755014752
 20
-27.7535419047
 30
0.0
 11
12.9755014752
 21
27.7538814566
 31
0.0
  0
SPLINE
  5
A0
330
1F
100
AcDbEntity
  8
1
 62
     4
420
    65535
100
AcDbSpline
210
0.0
220
0.0
230
1.0
 70
     8
 71
     3
 72
     8
 73
     4
 74
     0
 42
0.000000001
 43
0.00000001
 40
0.0
 40
0.0
 40
0.0
 40
0.0
 40
1.0
 40
1.0
 40
1.0
 40
1.0
 10
12.97550147516307
 20
27.75388145661122
 30
0.0
 10
13.52765285490131
 20
28.74965233462861
 30
0.0
 10
14.08156471751978
 20
29.744474238676
 30
0.0
 10
14.63677187394952
 20
30.73855172751448
 30
0.0
  0
SPLINE
  5
A1
330
1F
100
AcDbEntity
  8
1
 62
     4
420
    65535
100
AcDbSpline
210
0.0
220
0.0
230
1.0
 70
     8
 71
     3
 72
     8
 73
     4
 74
     0
 42
0.000000001
 43
0.00000001
 40
0.0
 40
0.0
 40
0.0
 40
0.0
 40
1.0
 40
1.0
 40
1.0
 40
1.0
 10
14.63677187394953
 20
-30.73821217560587
 30
0.0
 10
14.08155811224029
 20
-29.7441228602634
 30
0.0
 10
13.52765225654879
 20
-28.74931170362823
 30
0.0
 10
12.97550147516307
 20
-27.75354190470261
 30
0.0
  0
LINE
  5
A2
330
1F
100
AcDbEntity
  8
1
 62
     4
420
    65535
100
AcDbLine
 10
12.7755014752
 20
-26.9481720098
 30
0.0
 11
12.7755014752
 21
26.9485115617
 31
0.0
  0
SPLINE
  5
A3
330
1F
100
AcDbEntity
  8
1
 62
     4
420
    65535
100
AcDbSpline
210
0.0
220
0.0
230
1.0
 70
     8
 71
     3
 72
    10
 73
     6
 74
     0
 42
0.000000001
 43
0.00000001
 40
0.0
 40
0.0
 40
0.0
 40
0.0
 40
0.5
 40
0.5
 40
1.0
 40
1.0
 40
1.0
 40
1.0
 10
12.77550147516688
 20
26.94851156167463
 30
0.0
 10
12.82873539888837
 20
26.94851156167568
 30
0.0
 10
12.88214383465183
 20
26.97248530226692
 30
0.0
 10
12.95494347949132
 20
27.05022104316167
 30
0.0
 10
12.97550147516308
 20
27.10382236555417
 30
0.0
 10
12.97550147516308
 20
27.15717853980751
 30
0.0
  0
SPLINE
  5
A4
330
1F
100
AcDbEntity
  8
1
 62
     4
420
    65535
100
AcDbSpline
210
0.0
220
0.0
230
1.0
 70
     8
 71
     3
 72
    10
 73
     6
 74
     0
 42
0.000000001
 43
0.00000001
 40
0.0
 40
0.0
 40
0.0
 40
0.0
 40
0.5
 40
0.5
 40
1.0
 40
1.0
 40
1.0
 40
1.0
 10
12.97550147516308
 20
-27.15683898789891
 30
0.0
 10
12.97550147516308
 20
-27.10349296519428
 30
0.0
 10
12.95517679658295
 20
-27.05009026982871
 30
0.0
 10
12.88176633366519
 20
-26.97178309103054
 30
0.0
 10
12.8290265032531
 20
-26.94817200976602
 30
0.0
 10
12.77550147516308
 20
-26.94817200976601
 30
0.0
  0
SPLINE
  5
A5
330
1F
100
AcDbEntity
  8
1
 62
     4
420
    65535
100
AcDbSpline
210
0.0
220
0.0
230
1.0
 70
     8
 71
     3
 72
    10
 73
     6
 74
     0
 42
0.000000001
 43
0.00000001
 40
0.0
 40
0.0
 40
0.0
 40
0.0
 40
0.5
 40
0.5
 40
1.0
 40
1.0
 40
1.0
 40
1.0
 10
9.225501475163066
 20
27.15717853980521
 30
0.0
 10
9.225501475163627
 20
27.10393588507507
 30
0.0
 10
9.245924278600354
 20
27.05037181175067
 30
0.0
 10
9.31897134165642
 20
26.97235905914545
 30
0.0
 10
9.372262604852583
 20
26.94851156167463
 30
0.0
 10
9.425501475163072
 20
26.94851156167463
 30
0.0
  0
LINE
  5
A6
330
1F
100
AcDbEntity
  8
1
 62
     4
420
    65535
100
AcDbLine
 10
9.4255014752
 20
-26.9481720098
 30
0.0
 11
9.4255014752
 21
26.9485115617
 31
0.0
  0
SPLINE
  5
A7
330
1F
100
AcDbEntity
  8
1
 62
     4
420
    65535
100
AcDbSpline
210
0.0
220
0.0
230
1.0
 70
     8
 71
     3
 72
    10
 73
     6
 74
     0
 42
0.000000001
 43
0.00000001
 40
0.0
 40
0.0
 40
0.0
 40
0.0
 40
0.5
 40
0.5
 40
1.0
 40
1.0
 40
1.0
 40
1.0
 10
9.425501475163072
 20
-26.94817200976601
 30
0.0
 10
9.371933917605178
 20
-26.94817200976601
 30
0.0
 10
9.319123266436094
 20
-26.97194930056341
 30
0.0
 10
9.24610213249409
 20
-27.04975068472371
 30
0.0
 10
9.225501475163066
 20
-27.10299190093274
 30
0.0
 10
9.225501475163066
 20
-27.1568389878989
 30
0.0
  0
LINE
  5
A8
330
1F
100
AcDbEntity
  8
1
 62
     4
420
    65535
100
AcDbLine
 10
9.4255014752
 20
26.9485115617
 30
0.0
 11
12.7755014752
 21
26.9485115617
 31
0.0
  0
LINE
  5
A9
330
1F
100
AcDbEntity
  8
1
 62
     4
420
    65535
100
AcDbLine
 10
12.7755014752
 20
-26.9481720098
 30
0.0
 11
9.4255014752
 21
-26.9481720098
 31
0.0
  0
LINE
  5
AA
330
1F
100
AcDbEntity
  8
1
 62
     4
420
    65535
100
AcDbLine
 10
1.6005014752
 20
-22.453398736
 30
0.0
 11
1.6005014752
 21
22.4537382879
 31
0.0
  0
LINE
  5
AB
330
1F
100
AcDbEntity
  8
1
 62
     4
420
    65535
100
AcDbLine
 10
-68.3994985248
 20
-11.4127699763
 30
0.0
 11
-68.3994985248
 21
11.413109529
 31
0.0
  0
LINE
  5
AC
330
1F
100
AcDbEntity
  8
1
 62
     4
420
    65535
100
AcDbLine
 10
-67.3692020302
 20
-12.6007096726
 30
0.0
 11
-67.3692020302
 21
12.6010492245
 31
0.0
  0
LINE
  5
AD
330
1F
100
AcDbEntity
  8
1
 62
     4
420
    65535
100
AcDbLine
 10
1.7005014752
 20
-22.333398736
 30
0.0
 11
1.7005014752
 21
22.3337382879
 31
0.0
  0
LINE
  5
AE
330
1F
100
AcDbEntity
  8
1
 62
     4
420
    65535
100
AcDbLine
 10
3.1005014752
 20
-22.333398736
 30
0.0
 11
3.1005014752
 21
22.3337382879
 31
0.0
  0
SPLINE
  5
AF
330
1F
100
AcDbEntity
  8
1
  6
SLD-Gestrichelt
 62
   131
420
  8454143
370
     0
100
AcDbSpline
210
0.0
220
0.0
230
1.0
 70
     8
 71
     3
 72
    32
 73
    28
 74
     0
 42
0.000000001
 43
0.00000001
 40
0.0
 40
0.0
 40
0.0
 40
0.0
 40
0.0625000000000001
 40
0.0625000000000001
 40
0.0937500000000002
 40
0.0937500000000002
 40
0.1250000000000003
 40
0.1250000000000003
 40
0.1875000000000005
 40
0.1875000000000005
 40
0.2500000000000007
 40
0.2500000000000007
 40
0.3125000000000009
 40
0.3125000000000009
 40
0.3750000000000011
 40
0.3750000000000011
 40
0.500000000000001
 40
0.500000000000001
 40
0.5625000000000008
 40
0.5625000000000008
 40
0.6250000000000004
 40
0.6250000000000004
 40
0.7500000000000003
 40
0.7500000000000003
 40
0.8750000000000001
 40
0.8750000000000001
 40
1.0
 40
1.0
 40
1.0
 40
1.0
 10
19.90050147516307
 20
-30.8587666117728
 30
0.0
 10
20.3467674108001
 20
-30.83198921503458
 30
0.0
 10
20.78042277430199
 20
-30.78344842143742
 30
0.0
 10
21.41316528691704
 20
-30.67881127509878
 30
0.0
 10
21.62110374734304
 20
-30.63858531995704
 30
0.0
 10
22.03102001294118
 20
-30.54709736538009
 30
0.0
 10
22.23401060568123
 20
-30.49552194654404
 30
0.0
 10
22.82463995677816
 20
-30.32603918870496
 30
0.0
 10
23.19439988618995
 20
-30.19374452529276
 30
0.0
 10
23.88963254367957
 20
-29.89006236411835
 30
0.0
 10
24.21746374308773
 20
-29.71692945895744
 30
0.0
 10
24.81439245994931
 20
-29.3384032244038
 30
0.0
 10
25.08430331805519
 20
-29.13326769528463
 30
0.0
 10
25.57268544787269
 20
-28.69084655059942
 30
0.0
 10
25.79218520164089
 20
-28.45176602622514
 30
0.0
 10
26.36444764449582
 20
-27.70342653101428
 30
0.0
 10
26.6375285742686
 20
-27.16058902126849
 30
0.0
 10
26.9197651334351
 20
-26.2803025112054
 30
0.0
 10
26.99184449356196
 20
-25.97628184395733
 30
0.0
 10
27.09509561063999
 20
-25.35985824310981
 30
0.0
 10
27.12684247895318
 20
-25.04576845214173
 30
0.0
 10
27.17023302887823
 20
-24.08594541885288
 30
0.0
 10
27.13049690654282
 20
-23.42268745009627
 30
0.0
 10
26.93844466410436
 20
-22.04910602549548
 30
0.0
 10
26.78811755486763
 20
-21.35281877788071
 30
0.0
 10
26.40018453940729
 20
-19.94084208173943
 30
0.0
 10
26.16243171194448
 20
-19.22509436933333
 30
0.0
 10
25.88496684700012
 20
-18.4998302240457
 30
0.0
  0
LINE
  5
B0
330
1F
100
AcDbEntity
  8
1
  6
SLD-Gestrichelt
 62
   131
420
  8454143
370
     0
100
AcDbLine
 10
99.5005014752
 20
-15.999830224
 30
0.0
 11
99.5005014752
 21
16.000169776
 31
0.0
  0
LINE
  5
B1
330
1F
100
AcDbEntity
  8
1
  6
SLD-Gestrichelt
 62
   131
420
  8454143
370
     0
100
AcDbLine
 10
39.0005014752
 20
-16.499830224
 30
0.0
 11
39.0005014752
 21
16.500169776
 31
0.0
  0
LINE
  5
B2
330
1F
100
AcDbEntity
  8
1
  6
SLD-Gestrichelt
 62
   131
420
  8454143
370
     0
100
AcDbLine
 10
37.0005014752
 20
-16.499830224
 30
0.0
 11
37.0005014752
 21
16.500169776
 31
0.0
  0
SPLINE
  5
B3
330
1F
100
AcDbEntity
  8
1
  6
SLD-Gestrichelt
 62
   131
420
  8454143
370
     0
100
AcDbSpline
210
0.0
220
0.0
230
1.0
 70
     8
 71
     3
 72
    27
 73
    23
 74
     0
 42
0.000000001
 43
0.00000001
 40
0.0
 40
0.0
 40
0.0
 40
0.0
 40
0.0478668708972993
 40
0.0972353306346393
 40
0.1450758676702984
 40
0.1941435528867881
 40
0.245314114585731
 40
0.2977189424635385
 40
0.3536293045317319
 40
0.411360760596406
 40
0.4634941628589518
 40
0.5177171614651483
 40
0.5622708530049213
 40
0.6080771746374574
 40
0.6537606676066928
 40
0.7004436581902331
 40
0.7531775975579706
 40
0.8072511691732428
 40
0.8631753958250765
 40
0.9210504758823488
 40
0.9717432731599954
 40
1.0
 40
1.0
 40
1.0
 40
1.0
 10
84.7505014751631
 20
16.0001697759543
 30
0.0
 10
84.73049632262975
 20
15.98918496868502
 30
0.0
 10
84.68985845379662
 20
15.96687075957203
 30
0.0
 10
84.36544857150093
 20
15.79157780689879
 30
0.0
 10
83.85991825178743
 20
15.52831227523176
 30
0.0
 10
83.1675945052573
 20
15.18723026521067
 30
0.0
 10
82.28775434661092
 20
14.78901132376001
 30
0.0
 10
81.20788926719497
 20
14.35837178417861
 30
0.0
 10
79.92838887997026
 20
13.93847539824713
 30
0.0
 10
78.51083572994902
 20
13.60322428443202
 30
0.0
 10
77.01081615255032
 20
13.40619142503762
 30
0.0
 10
75.58983293958707
 20
13.37768467628168
 30
0.0
 10
74.24766815591086
 20
13.49116345349924
 30
0.0
 10
73.03426518293712
 20
13.70372083562468
 30
0.0
 10
71.88013649724643
 20
14.00157214967629
 30
0.0
 10
70.76954485767789
 20
14.3688450543951
 30
0.0
 10
69.72512752223825
 20
14.78329147797484
 30
0.0
 10
68.78682784244772
 20
15.20822776391422
 30
0.0
 10
68.01765341329724
 20
15.59054888915215
 30
0.0
 10
67.51202311808701
 20
15.85760323237929
 30
0.0
 10
67.2621891717011
 20
15.99375943403328
 30
0.0
 10
67.27630365918425
 20
15.98607003120893
 30
0.0
 10
67.28135535799757
 20
15.98331792652433
 30
0.0
  0
SPLINE
  5
B4
330
1F
100
AcDbEntity
  8
1
  6
SLD-Gestrichelt
 62
   131
420
  8454143
370
     0
100
AcDbSpline
210
0.0
220
0.0
230
1.0
 70
     8
 71
     3
 72
    27
 73
    23
 74
     0
 42
0.000000001
 43
0.00000001
 40
0.0
 40
0.0
 40
0.0
 40
0.0
 40
0.0478668708972992
 40
0.0972353306346393
 40
0.1450758676702983
 40
0.194143552886788
 40
0.2453141145857308
 40
0.2977189424635385
 40
0.3536293045317324
 40
0.4113607605964064
 40
0.4634941628589525
 40
0.5177171614651483
 40
0.5622708530049216
 40
0.6080771746374575
 40
0.6537606676066929
 40
0.7004436581902336
 40
0.7531775975579708
 40
0.8072511691732425
 40
0.8631753958250762
 40
0.9210504758823486
 40
0.9717432731599953
 40
1.0
 40
1.0
 40
1.0
 40
1.0
 10
56.75050147516308
 20
16.0001697759543
 30
0.0
 10
56.73049632262974
 20
15.98918496868501
 30
0.0
 10
56.68985845379663
 20
15.96687075957203
 30
0.0
 10
56.36544857150096
 20
15.79157780689879
 30
0.0
 10
55.85991825178748
 20
15.52831227523176
 30
0.0
 10
55.16759450525728
 20
15.18723026521066
 30
0.0
 10
54.28775434661095
 20
14.78901132376001
 30
0.0
 10
53.20788926719496
 20
14.35837178417861
 30
0.0
 10
51.92838887997024
 20
13.93847539824712
 30
0.0
 10
50.51083572994897
 20
13.60322428443201
 30
0.0
 10
49.01081615255029
 20
13.40619142503761
 30
0.0
 10
47.58983293958707
 20
13.37768467628167
 30
0.0
 10
46.24766815591083
 20
13.49116345349923
 30
0.0
 10
45.03426518293709
 20
13.70372083562467
 30
0.0
 10
43.8801364972464
 20
14.00157214967629
 30
0.0
 10
42.76954485767784
 20
14.36884505439509
 30
0.0
 10
41.72512752223828
 20
14.78329147797485
 30
0.0
 10
40.78682784244767
 20
15.2082277639142
 30
0.0
 10
40.01765341329722
 20
15.59054888915214
 30
0.0
 10
39.51202311808699
 20
15.85760323237929
 30
0.0
 10
39.26218917170105
 20
15.99375943403328
 30
0.0
 10
39.27630365918421
 20
15.98607003120892
 30
0.0
 10
39.28135535799753
 20
15.98331792652433
 30
0.0
  0
LINE
  5
B5
330
1F
100
AcDbEntity
  8
1
  6
SLD-Gestrichelt
 62
   131
420
  8454143
370
     0
100
AcDbLine
 10
37.7505014752
 20
34.500169776
 30
0.0
 11
58.2505014752
 21
34.500169776
 31
0.0
  0
LINE
  5
B6
330
1F
100
AcDbEntity
  8
1
  6
SLD-Gestrichelt
 62
   131
420
  8454143
370
     0
100
AcDbLine
 10
65.7505014752
 20
34.500169776
 30
0.0
 11
86.2505014752
 21
34.500169776
 31
0.0
  0
LINE
  5
B7
330
1F
100
AcDbEntity
  8
1
  6
SLD-Gestrichelt
 62
   131
420
  8454143
370
     0
100
AcDbLine
 10
-60.1994985248
 20
-8.499830224
 30
0.0
 11
-60.1994985248
 21
8.500169776
 31
0.0
  0
LINE
  5
B8
330
1F
100
AcDbEntity
  8
1
  6
SLD-Gestrichelt
 62
   131
420
  8454143
370
     0
100
AcDbLine
 10
19.1005014752
 20
-25.499830224
 30
0.0
 11
27.1505014752
 21
-25.499830224
 31
0.0
  0
LINE
  5
B9
330
1F
100
AcDbEntity
  8
1
  6
SLD-Gestrichelt
 62
   131
420
  8454143
370
     0
100
AcDbLine
 10
19.1005014752
 20
-24.999830224
 30
0.0
 11
3.2005014752
 21
-24.999830224
 31
0.0
  0
LINE
  5
BA
330
1F
100
AcDbEntity
  8
1
  6
SLD-Gestrichelt
 62
   131
420
  8454143
370
     0
100
AcDbLine
 10
3.2005014752
 20
-25.499830224
 30
0.0
 11
19.1005014752
 21
-25.499830224
 31
0.0
  0
LINE
  5
BB
330
1F
100
AcDbEntity
  8
1
  6
SLD-Gestrichelt
 62
   131
420
  8454143
370
     0
100
AcDbLine
 10
26.6505014752
 20
-24.999830224
 30
0.0
 11
19.1005014752
 21
-24.999830224
 31
0.0
  0
LINE
  5
BC
330
1F
100
AcDbEntity
  8
1
  6
SLD-Gestrichelt
 62
   131
420
  8454143
370
     0
100
AcDbLine
 10
19.1005014752
 20
22.800169776
 30
0.0
 11
26.6505014752
 21
22.800169776
 31
0.0
  0
LINE
  5
BD
330
1F
100
AcDbEntity
  8
1
  6
SLD-Gestrichelt
 62
   131
420
  8454143
370
     0
100
AcDbLine
 10
3.2005014752
 20
22.800169776
 30
0.0
 11
19.1005014752
 21
22.800169776
 31
0.0
  0
LINE
  5
BE
330
1F
100
AcDbEntity
  8
1
  6
SLD-Gestrichelt
 62
   131
420
  8454143
370
     0
100
AcDbLine
 10
19.1005014752
 20
23.300169776
 30
0.0
 11
3.2005014752
 21
23.300169776
 31
0.0
  0
LINE
  5
BF
330
1F
100
AcDbEntity
  8
1
  6
SLD-Gestrichelt
 62
   131
420
  8454143
370
     0
100
AcDbLine
 10
-58.4674477173
 20
-6.999830224
 30
0.0
 11
-58.4674477173
 21
7.000169776
 31
0.0
  0
LINE
  5
C0
330
1F
100
AcDbEntity
  8
1
  6
SLD-Gestrichelt
 62
   131
420
  8454143
370
     0
100
AcDbLine
 10
-25.8994985248
 20
-6.999830224
 30
0.0
 11
-25.8994985248
 21
7.000169776
 31
0.0
  0
LINE
  5
C1
330
1F
100
AcDbEntity
  8
1
  6
SLD-Gestrichelt
 62
   131
420
  8454143
370
     0
100
AcDbLine
 10
-24.0969166678
 20
-3.999830224
 30
0.0
 11
-24.0969166678
 21
4.000169776
 31
0.0
  0
LINE
  5
C2
330
1F
100
AcDbEntity
  8
1
  6
SLD-Gestrichelt
 62
   131
420
  8454143
370
     0
100
AcDbLine
 10
9.4255014752
 20
-21.1839191825
 30
0.0
 11
9.4255014752
 21
-26.9481720098
 31
0.0
  0
SPLINE
  5
C3
330
1F
100
AcDbEntity
  8
1
  6
SLD-Gestrichelt
 62
   131
420
  8454143
370
     0
100
AcDbSpline
210
0.0
220
0.0
230
1.0
 70
     8
 71
     3
 72
    12
 73
     8
 74
     0
 42
0.000000001
 43
0.00000001
 40
0.0
 40
0.0
 40
0.0
 40
0.0
 40
0.499999999999996
 40
0.499999999999996
 40
0.749999999999998
 40
0.749999999999998
 40
1.0
 40
1.0
 40
1.0
 40
1.0
 10
9.225501475163066
 20
-21.44873753887179
 30
0.0
 10
9.225501475163066
 20
-21.38767936971413
 30
0.0
 10
9.241197219879211
 20
-21.3259831238288
 30
0.0
 10
9.29131182754303
 20
-21.24964134796441
 30
0.0
 10
9.312787181089597
 20
-21.22680564287349
 30
0.0
 10
9.364464121176704
 20
-21.19373669785378
 30
0.0
 10
9.395025141515807
 20
-21.183919182507
 30
0.0
 10
9.425501475163072
 20
-21.183919182507
 30
0.0
  0
SPLINE
  5
C4
330
1F
100
AcDbEntity
  8
1
  6
SLD-Gestrichelt
 62
   131
420
  8454143
370
     0
100
AcDbSpline
210
0.0
220
0.0
230
1.0
 70
     8
 71
     3
 72
    12
 73
     8
 74
     0
 42
0.000000001
 43
0.00000001
 40
0.0
 40
0.0
 40
0.0
 40
0.0
 40
0.2499999999999981
 40
0.2499999999999981
 40
0.4999999999999961
 40
0.4999999999999961
 40
1.0
 40
1.0
 40
1.0
 40
1.0
 10
12.77550147516612
 20
-21.18391918250697
 30
0.0
 10
12.80594884343422
 20
-21.18391918250758
 30
0.0
 10
12.83658741278716
 20
-21.19376987588136
 30
0.0
 10
12.88814932574852
 20
-21.22676103674996
 30
0.0
 10
12.90962500660663
 20
-21.24955282538978
 30
0.0
 10
12.9598445682531
 20
-21.32601793096785
 30
0.0
 10
12.97550147516308
 20
-21.38796179226103
 30
0.0
 10
12.97550147516307
 20
-21.44873753887179
 30
0.0
  0
LINE
  5
C5
330
1F
100
AcDbEntity
  8
1
  6
SLD-Gestrichelt
 62
   131
420
  8454143
370
     0
100
AcDbLine
 10
12.7755014752
 20
-21.1839191825
 30
0.0
 11
12.7755014752
 21
-26.9481720098
 31
0.0
  0
LINE
  5
C6
330
1F
100
AcDbEntity
  8
1
  6
SLD-Gestrichelt
 62
   131
420
  8454143
370
     0
100
AcDbLine
 10
9.4255014752
 20
26.9485115617
 30
0.0
 11
9.4255014752
 21
-18.499830224
 31
0.0
  0
LINE
  5
C7
330
1F
100
AcDbEntity
  8
1
  6
SLD-Gestrichelt
 62
   131
420
  8454143
370
     0
100
AcDbLine
 10
12.7755014752
 20
26.9485115617
 30
0.0
 11
12.7755014752
 21
-18.499830224
 31
0.0
  0
LINE
  5
C8
330
1F
100
AcDbEntity
  8
1
  6
SLD-Gestrichelt
 62
   131
420
  8454143
370
     0
100
AcDbLine
 10
19.1005014752
 20
-18.499830224
 30
0.0
 11
27.1505014752
 21
-18.499830224
 31
0.0
  0
SPLINE
  5
C9
330
1F
100
AcDbEntity
  8
1
  6
SLD-Gestrichelt
 62
   131
420
  8454143
370
     0
100
AcDbSpline
210
0.0
220
0.0
230
1.0
 70
     8
 71
     3
 72
     8
 73
     4
 74
     0
 42
0.000000001
 43
0.00000001
 40
0.0
 40
0.0
 40
0.0
 40
0.0
 40
1.0
 40
1.0
 40
1.0
 40
1.0
 10
19.10050147516307
 20
-29.94628243461647
 30
0.0
 10
19.36292534919336
 20
-30.25474369409766
 30
0.0
 10
19.62956540146168
 20
-30.55894993619037
 30
0.0
 10
19.90050147516307
 20
-30.8587666117728
 30
0.0
  0
SPLINE
  5
CA
330
1F
100
AcDbEntity
  8
1
  6
SLD-Gestrichelt
 62
   131
420
  8454143
370
     0
100
AcDbSpline
210
0.0
220
0.0
230
1.0
 70
     8
 71
     3
 72
     8
 73
     4
 74
     0
 42
0.000000001
 43
0.00000001
 40
0.0
 40
0.0
 40
0.0
 40
0.0
 40
1.0
 40
1.0
 40
1.0
 40
1.0
 10
7.564231076376625
 20
-25.83392833100503
 30
0.0
 10
8.13082747189227
 20
-24.62687435916548
 30
0.0
 10
8.68599910308971
 20
-23.41578763604153
 30
0.0
 10
9.225501475163066
 20
-22.19940256346319
 30
0.0
  0
LINE
  5
CB
330
1F
100
AcDbEntity
  8
1
  6
SLD-Gestrichelt
 62
   131
420
  8454143
370
     0
100
AcDbLine
 10
9.4255014752
 20
-21.1839191825
 30
0.0
 11
12.7755014752
 21
-21.1839191825
 31
0.0
  0
LINE
  5
CC
330
1F
100
AcDbEntity
  8
1
  6
SLD-Gestrichelt
 62
   131
420
  8454143
370
     0
100
AcDbLine
 10
3.2005014752
 20
-25.833928331
 30
0.0
 11
7.5642310764
 21
-25.833928331
 31
0.0
  0
LINE
  5
CD
330
1F
100
AcDbEntity
  8
1
  6
SLD-Gestrichelt
 62
   131
420
  8454143
370
     0
100
AcDbLine
 10
14.6367718739
 20
-25.833928331
 30
0.0
 11
19.1005014752
 21
-25.833928331
 31
0.0
  0
SPLINE
  5
CE
330
1F
100
AcDbEntity
  8
1
  6
SLD-Gestrichelt
 62
   131
420
  8454143
370
     0
100
AcDbSpline
210
0.0
220
0.0
230
1.0
 70
     8
 71
     3
 72
     8
 73
     4
 74
     0
 42
0.000000001
 43
0.00000001
 40
0.0
 40
0.0
 40
0.0
 40
0.0
 40
1.0
 40
1.0
 40
1.0
 40
1.0
 10
12.97550147516307
 20
-22.19940256346324
 30
0.0
 10
13.51556373619747
 20
-23.41704998558766
 30
0.0
 10
14.07068881065737
 20
-24.6279679413064
 30
0.0
 10
14.63677187394952
 20
-25.83392833100503
 30
0.0
  0
LINE
  5
CF
330
1F
100
AcDbEntity
  8
1
  6
SLD-Gestrichelt
 62
   131
420
  8454143
370
     0
100
AcDbLine
 10
3.2005014752
 20
-18.499830224
 30
0.0
 11
19.1005014752
 21
-18.499830224
 31
0.0
  0
LINE
  5
D0
330
1F
100
AcDbEntity
  8
1
  6
SLD-Gestrichelt
 62
   131
420
  8454143
370
     0
100
AcDbLine
 10
100.0005014752
 20
16.500169776
 30
0.0
 11
99.5005014752
 21
16.000169776
 31
0.0
  0
LINE
  5
D1
330
1F
100
AcDbEntity
  8
1
  6
SLD-Gestrichelt
 62
   131
420
  8454143
370
     0
100
AcDbLine
 10
99.5005014752
 20
-15.999830224
 30
0.0
 11
100.0005014752
 21
-16.499830224
 31
0.0
  0
LINE
  5
D2
330
1F
100
AcDbEntity
  8
1
  6
SLD-Gestrichelt
 62
   131
420
  8454143
370
     0
100
AcDbLine
 10
37.0005014752
 20
-16.499830224
 30
0.0
 11
39.0005014752
 21
-16.499830224
 31
0.0
  0
LINE
  5
D3
330
1F
100
AcDbEntity
  8
1
  6
SLD-Gestrichelt
 62
   131
420
  8454143
370
     0
100
AcDbLine
 10
39.0005014752
 20
16.500169776
 30
0.0
 11
37.0005014752
 21
16.500169776
 31
0.0
  0
LINE
  5
D4
330
1F
100
AcDbEntity
  8
1
  6
SLD-Gestrichelt
 62
   131
420
  8454143
370
     0
100
AcDbLine
 10
39.0005014752
 20
-15.999830224
 30
0.0
 11
99.5005014752
 21
-15.999830224
 31
0.0
  0
LINE
  5
D5
330
1F
100
AcDbEntity
  8
1
  6
SLD-Gestrichelt
 62
   131
420
  8454143
370
     0
100
AcDbLine
 10
39.281355358
 20
16.000169776
 30
0.0
 11
39.0005014752
 21
16.000169776
 31
0.0
  0
LINE
  5
D6
330
1F
100
AcDbEntity
  8
1
  6
SLD-Gestrichelt
 62
   131
420
  8454143
370
     0
100
AcDbLine
 10
67.281355358
 20
16.000169776
 30
0.0
 11
56.7505014752
 21
16.000169776
 31
0.0
  0
LINE
  5
D7
330
1F
100
AcDbEntity
  8
1
  6
SLD-Gestrichelt
 62
   131
420
  8454143
370
     0
100
AcDbLine
 10
99.5005014752
 20
16.000169776
 30
0.0
 11
84.7505014752
 21
16.000169776
 31
0.0
  0
LINE
  5
D8
330
1F
100
AcDbEntity
  8
1
  6
SLD-Gestrichelt
 62
   131
420
  8454143
370
     0
100
AcDbLine
 10
37.7505014752
 20
36.000169776
 30
0.0
 11
37.7505014752
 21
34.500169776
 31
0.0
  0
LINE
  5
D9
330
1F
100
AcDbEntity
  8
1
  6
SLD-Gestrichelt
 62
   131
420
  8454143
370
     0
100
AcDbLine
 10
58.2505014752
 20
34.500169776
 30
0.0
 11
58.2505014752
 21
36.000169776
 31
0.0
  0
LINE
  5
DA
330
1F
100
AcDbEntity
  8
1
  6
SLD-Gestrichelt
 62
   131
420
  8454143
370
     0
100
AcDbLine
 10
65.7505014752
 20
36.000169776
 30
0.0
 11
65.7505014752
 21
34.500169776
 31
0.0
  0
LINE
  5
DB
330
1F
100
AcDbEntity
  8
1
  6
SLD-Gestrichelt
 62
   131
420
  8454143
370
     0
100
AcDbLine
 10
86.2505014752
 20
34.500169776
 30
0.0
 11
86.2505014752
 21
36.000169776
 31
0.0
  0
ARC
  5
DC
330
1F
100
AcDbEntity
  8
1
  6
SLD-Gestrichelt
 62
   131
420
  8454143
370
     0
100
AcDbCircle
 10
-67.3994985248
 20
-9.499830224
 30
0.0
 40
1.000000000000005
100
AcDbArc
 50
90.0
 51
180.0
  0
ARC
  5
DD
330
1F
100
AcDbEntity
  8
1
  6
SLD-Gestrichelt
 62
   131
420
  8454143
370
     0
100
AcDbCircle
 10
-67.3994985248
 20
9.500169776
 30
0.0
 40
1.000000000000005
100
AcDbArc
 50
180.0
 51
270.0
  0
LINE
  5
DE
330
1F
100
AcDbEntity
  8
1
  6
SLD-Gestrichelt
 62
   131
420
  8454143
370
     0
100
AcDbLine
 10
39.2505014752
 20
34.500169776
 30
0.0
 11
39.2505014752
 21
15.9833184194
 31
0.0
  0
LINE
  5
DF
330
1F
100
AcDbEntity
  8
1
  6
SLD-Gestrichelt
 62
   131
420
  8454143
370
     0
100
AcDbLine
 10
56.7505014752
 20
16.000169776
 30
0.0
 11
56.7505014752
 21
34.500169776
 31
0.0
  0
LINE
  5
E0
330
1F
100
AcDbEntity
  8
1
  6
SLD-Gestrichelt
 62
   131
420
  8454143
370
     0
100
AcDbLine
 10
67.2505014752
 20
34.500169776
 30
0.0
 11
67.2505014752
 21
15.9833184194
 31
0.0
  0
LINE
  5
E1
330
1F
100
AcDbEntity
  8
1
  6
SLD-Gestrichelt
 62
   131
420
  8454143
370
     0
100
AcDbLine
 10
84.7505014752
 20
16.000169776
 30
0.0
 11
84.7505014752
 21
34.500169776
 31
0.0
  0
LINE
  5
E2
330
1F
100
AcDbEntity
  8
1
  6
SLD-Gestrichelt
 62
   131
420
  8454143
370
     0
100
AcDbLine
 10
-67.3994985248
 20
-8.499830224
 30
0.0
 11
-60.1994985248
 21
-8.499830224
 31
0.0
  0
LINE
  5
E3
330
1F
100
AcDbEntity
  8
1
  6
SLD-Gestrichelt
 62
   131
420
  8454143
370
     0
100
AcDbLine
 10
-60.1994985248
 20
8.500169776
 30
0.0
 11
-67.3994985248
 21
8.500169776
 31
0.0
  0
LINE
  5
E4
330
1F
100
AcDbEntity
  8
1
  6
SLD-Gestrichelt
 62
   131
420
  8454143
370
     0
100
AcDbLine
 10
27.1505014752
 20
-35.999830224
 30
0.0
 11
27.1505014752
 21
-25.499830224
 31
0.0
  0
ARC
  5
E5
330
1F
100
AcDbEntity
  8
1
  6
SLD-Gestrichelt
 62
   131
420
  8454143
370
     0
100
AcDbCircle
 10
26.6505014752
 20
-25.499830224
 30
0.0
 40
0.5
100
AcDbArc
 50
0.0
 51
90.0
  0
ARC
  5
E6
330
1F
100
AcDbEntity
  8
1
  6
SLD-Gestrichelt
 62
   131
420
  8454143
370
     0
100
AcDbCircle
 10
26.6505014752
 20
23.300169776
 30
0.0
 40
0.5
100
AcDbArc
 50
270.0
 51
0.0
  0
LINE
  5
E7
330
1F
100
AcDbEntity
  8
1
  6
SLD-Gestrichelt
 62
   131
420
  8454143
370
     0
100
AcDbLine
 10
27.1505014752
 20
23.300169776
 30
0.0
 11
27.1505014752
 21
36.000169776
 31
0.0
  0
LINE
  5
E8
330
1F
100
AcDbEntity
  8
1
  6
SLD-Gestrichelt
 62
   131
420
  8454143
370
     0
100
AcDbLine
 10
-60.1994985248
 20
-7.999830224
 30
0.0
 11
-58.4674477173
 21
-6.999830224
 31
0.0
  0
LINE
  5
E9
330
1F
100
AcDbEntity
  8
1
  6
SLD-Gestrichelt
 62
   131
420
  8454143
370
     0
100
AcDbLine
 10
-58.4674477173
 20
7.000169776
 30
0.0
 11
-60.1994985248
 21
8.000169776
 31
0.0
  0
LINE
  5
EA
330
1F
100
AcDbEntity
  8
1
  6
SLD-Gestrichelt
 62
   131
420
  8454143
370
     0
100
AcDbLine
 10
-58.4674477173
 20
-6.999830224
 30
0.0
 11
-25.8994985248
 21
-6.999830224
 31
0.0
  0
LINE
  5
EB
330
1F
100
AcDbEntity
  8
1
  6
SLD-Gestrichelt
 62
   131
420
  8454143
370
     0
100
AcDbLine
 10
-25.8994985248
 20
7.000169776
 30
0.0
 11
-58.4674477173
 21
7.000169776
 31
0.0
  0
LINE
  5
EC
330
1F
100
AcDbEntity
  8
1
  6
SLD-Gestrichelt
 62
   131
420
  8454143
370
     0
100
AcDbLine
 10
-25.8994985248
 20
-6.999830224
 30
0.0
 11
-24.0969166678
 21
-3.999830224
 31
0.0
  0
LINE
  5
ED
330
1F
100
AcDbEntity
  8
1
  6
SLD-Gestrichelt
 62
   131
420
  8454143
370
     0
100
AcDbLine
 10
-24.0969166678
 20
4.000169776
 30
0.0
 11
-25.8994985248
 21
7.000169776
 31
0.0
  0
LINE
  5
EE
330
1F
100
AcDbEntity
  8
1
  6
SLD-Gestrichelt
 62
   131
420
  8454143
370
     0
100
AcDbLine
 10
-24.0969166678
 20
-3.999830224
 30
0.0
 11
37.0005014752
 21
-3.999830224
 31
0.0
  0
LINE
  5
EF
330
1F
100
AcDbEntity
  8
1
  6
SLD-Gestrichelt
 62
   131
420
  8454143
370
     0
100
AcDbLine
 10
37.0005014752
 20
4.000169776
 30
0.0
 11
-24.0969166678
 21
4.000169776
 31
0.0
  0
LINE
  5
F0
330
1F
100
AcDbEntity
  8
1
  6
SLD-Gestrichelt
 62
   131
420
  8454143
370
     0
100
AcDbLine
 10
27.1505014752
 20
-24.2962224031
 30
0.0
 11
27.1505014752
 21
-18.499830224
 31
0.0
  0
LINE
  5
F1
330
1F
100
AcDbEntity
  8
1
  6
SLD-Gestrichelt
 62
   131
420
  8454143
370
     0
100
AcDbLine
 10
-67.3994985248
 20
8.500169776
 30
0.0
 11
-67.3994985248
 21
-8.499830224
 31
0.0
  0
LINE
  5
F2
330
1F
100
AcDbEntity
  8
1
  6
SLD-Gestrichelt
 62
   131
420
  8454143
370
     0
100
AcDbLine
 10
19.1005014752
 20
23.300169776
 30
0.0
 11
27.1505014752
 21
23.300169776
 31
0.0
  0
DIMENSION
  5
F3
330
1F
100
AcDbEntity
  8
2
 62
     7
420
 16777215
100
AcDbDimension
  2
_D
 10
0.0005014752
 20
42.000169776
 30
0.0
 11
50.0005014752
 21
42.000169776
 31
0.0
 70
   160
  1
<>
 71
     2
 42
-1.0
  3
SLDDIMSTYLE0
100
AcDbAlignedDimension
 13
100.0005014752
 23
0.000169776
 33
0.0
 14
0.0005014752
 24
0.000169776
 34
0.0
100
AcDbRotatedDimension
  0
DIMENSION
  5
FF
330
1F
100
AcDbEntity
  8
2
 62
     7
420
 16777215
100
AcDbDimension
  2
_D_1
 10
100.0005014752
 20
48.000169776
 30
0.0
 11
15.8005014752
 21
48.000169776
 31
0.0
 70
   160
  1
<>
 71
     2
 42
-1.0
  3
SLDDIMSTYLE0
100
AcDbAlignedDimension
 13
-68.3994985248
 23
0.000169776
 33
0.0
 14
100.0005014752
 24
0.000169776
 34
0.0
 50
0.0
100
AcDbRotatedDimension
  0
DIMENSION
  5
109
330
1F
100
AcDbEntity
  8
2
 62
     7
420
 16777215
100
AcDbDimension
  2
_D_2
 10
106.0005014752
 20
-15.999830224
 30
0.0
 11
106.0005014752
 21
0.000169776
 31
0.0
 70
   160
  1
%%c<>
 71
     2
 42
-1.0
  3
SLDDIMSTYLE0
100
AcDbAlignedDimension
 13
99.5005014752
 23
16.000169776
 33
0.0
 14
99.5005014752
 24
-15.999830224
 34
0.0
 50
90.0
100
AcDbRotatedDimension
  0
DIMENSION
  5
114
330
1F
100
AcDbEntity
  8
2
 62
     7
420
 16777215
100
AcDbDimension
  2
_D_3
 10
112.0005014752
 20
-35.999830224
 30
0.0
 11
112.0005014752
 21
0.000169776
 31
0.0
 70
   160
  1
%%c<>
 71
     2
 42
-1.0
  3
SLDDIMSTYLE0
100
AcDbAlignedDimension
 13
91.0005014752
 23
36.000169776
 33
0.0
 14
91.0005014752
 24
-35.999830224
 34
0.0
 50
90.0
100
AcDbRotatedDimension
  0
LINE
  5
11F
330
1F
100
AcDbEntity
  8
0
  6
SLD-Durchgehend
 62
     7
370
     0
100
AcDbLine
 10
-25.8994985248
 20
-7.999830224
 30
0.0
 11
-60.1994985248
 21
-7.999830224
 31
0.0
  0
LINE
  5
120
330
1F
100
AcDbEntity
  8
0
  6
SLD-Durchgehend
 62
     7
370
     0
100
AcDbLine
 10
-25.8994985248
 20
8.000169776
 30
0.0
 11
-60.1994985248
 21
8.000169776
 31
0.0
  0
LINE
  5
121
330
1F
100
AcDbEntity
  8
0
  6
SLD-Durchgehend
 62
     7
370
     0
100
AcDbLine
 10
86.0005014752
 20
34.500169776
 30
0.0
 11
86.0005014752
 21
16.000169776
 31
0.0
  0
LINE
  5
122
330
1F
100
AcDbEntity
  8
0
  6
SLD-Durchgehend
 62
     7
370
     0
100
AcDbLine
 10
66.0005014752
 20
34.500169776
 30
0.0
 11
66.0005014752
 21
16.000169776
 31
0.0
  0
LINE
  5
123
330
1F
100
AcDbEntity
  8
0
  6
SLD-Durchgehend
 62
     7
370
     0
100
AcDbLine
 10
58.0005014752
 20
34.500169776
 30
0.0
 11
58.0005014752
 21
16.000169776
 31
0.0
  0
LINE
  5
124
330
1F
100
AcDbEntity
  8
0
  6
SLD-Durchgehend
 62
     7
370
     0
100
AcDbLine
 10
38.0005014752
 20
34.500169776
 30
0.0
 11
38.0005014752
 21
16.500169776
 31
0.0
  0
ENDSEC
  0
SECTION
  2
OBJECTS
  0
DICTIONARY
  5
C
330
0
100
AcDbDictionary
281
     1
  3
ACAD_DETAILVIEWSTYLE
350
12E
  3
ACAD_GROUP
350
D
  3
ACAD_LAYOUT
350
1A
  3
ACAD_MATERIAL
350
43
  3
ACAD_MLEADERSTYLE
350
6B
  3
ACAD_MLINESTYLE
350
17
  3
ACAD_PLOTSETTINGS
350
19
  3
ACAD_PLOTSTYLENAME
350
E
  3
ACAD_SCALELIST
350
47
  3
ACAD_SECTIONVIEWSTYLE
350
12F
  3
ACAD_TABLESTYLE
350
69
  3
ACDB_RECOMPOSE_DATA
350
12B
  3
AcDbVariableDictionary
350
125
  0
DICTIONARY
  5
12E
102
{ACAD_REACTORS
330
C
102
}
330
C
100
AcDbDictionary
281
     1
  0
DICTIONARY
  5
D
102
{ACAD_REACTORS
330
C
102
}
330
C
100
AcDbDictionary
281
     1
  0
DICTIONARY
  5
1A
102
{ACAD_REACTORS
330
C
102
}
330
C
100
AcDbDictionary
281
     1
  3
Layout1
350
1E
  3
Layout2
350
26
  3
Model
350
22
  0
DICTIONARY
  5
43
102
{ACAD_REACTORS
330
C
102
}
330
C
100
AcDbDictionary
281
     1
  3
ByBlock
350
45
  3
ByLayer
350
44
  3
Global
350
46
  0
DICTIONARY
  5
6B
102
{ACAD_REACTORS
330
C
102
}
330
C
100
AcDbDictionary
281
     1
  3
Standard
350
6C
  0
DICTIONARY
  5
17
102
{ACAD_REACTORS
330
C
102
}
330
C
100
AcDbDictionary
281
     1
  3
Standard
350
18
  0
DICTIONARY
  5
19
102
{ACAD_REACTORS
330
C
102
}
330
C
100
AcDbDictionary
281
     1
  0
ACDBDICTIONARYWDFLT
  5
E
102
{ACAD_REACTORS
330
C
102
}
330
C
100
AcDbDictionary
281
     1
  3
Normal
350
F
100
AcDbDictionaryWithDefault
340
F
  0
DICTIONARY
  5
47
102
{ACAD_REACTORS
330
C
102
}
330
C
100
AcDbDictionary
281
     1
  3
A0
350
48
  3
A1
350
49
  3
A2
350
4A
  3
A3
350
4B
  3
A4
350
4C
  3
A5
350
4D
  3
A6
350
4E
  3
A7
350
4F
  3
A8
350
50
  3
A9
350
51
  3
B0
350
52
  3
B1
350
53
  3
B2
350
54
  3
B3
350
55
  3
B4
350
56
  3
B5
350
57
  3
B6
350
58
  3
B7
350
59
  3
B8
350
5A
  3
B9
350
5B
  3
C0
350
5C
  3
C1
350
5D
  3
C2
350
5E
  3
C3
350
5F
  3
C4
350
60
  3
C5
350
61
  3
C6
350
62
  3
C7
350
63
  3
C8
350
64
  3
C9
350
65
  3
D0
350
66
  3
D1
350
67
  3
D2
350
68
  0
DICTIONARY
  5
12F
102
{ACAD_REACTORS
330
C
102
}
330
C
100
AcDbDictionary
281
     1
  0
DICTIONARY
  5
69
102
{ACAD_REACTORS
330
C
102
}
330
C
100
AcDbDictionary
281
     1
  3
Standard
350
6A
  0
XRECORD
  5
12B
102
{ACAD_REACTORS
330
C
102
}
330
C
100
AcDbXrecord
280
     1
 90
        1
330
6A
  0
DICTIONARY
  5
125
102
{ACAD_REACTORS
330
C
102
}
330
C
100
AcDbDictionary
281
     1
  3
CANNOSCALE
350
126
  3
CMLEADERSTYLE
350
12D
  3
CTABLESTYLE
350
12C
  0
LAYOUT
  5
1E
102
{ACAD_REACTORS
330
1A
102
}
330
1A
100
AcDbPlotSettings
  1

  2
none_device
  4

  6

 40
0.0
 41
0.0
 42
0.0
 43
0.0
 44
0.0
 45
0.0
 46
0.0
 47
0.0
 48
0.0
 49
0.0
140
0.0
141
0.0
142
1.0
143
1.0
 70
   688
 72
     1
 73
     0
 74
     5
  7

 75
    16
 76
     0
 77
     2
 78
   300
147
1.0
148
0.0
149
0.0
100
AcDbLayout
  1
Layout1
 70
     1
 71
     1
 10
0.0
 20
0.0
 11
420.0
 21
297.0
 12
0.0
 22
0.0
 32
0.0
 14
1.0000000000E+20
 24
1.0000000000E+20
 34
1.0000000000E+20
 15
-1.0000000000E+20
 25
-1.0000000000E+20
 35
-1.0000000000E+20
146
0.0
 13
0.0
 23
0.0
 33
0.0
 16
1.0
 26
0.0
 36
0.0
 17
0.0
 27
1.0
 37
0.0
 76
     0
330
1B
  0
LAYOUT
  5
26
102
{ACAD_REACTORS
330
1A
102
}
330
1A
100
AcDbPlotSettings
  1

  2
none_device
  4

  6

 40
0.0
 41
0.0
 42
0.0
 43
0.0
 44
0.0
 45
0.0
 46
0.0
 47
0.0
 48
0.0
 49
0.0
140
0.0
141
0.0
142
1.0
143
1.0
 70
   688
 72
     1
 73
     0
 74
     5
  7

 75
    16
 76
     0
 77
     2
 78
   300
147
1.0
148
0.0
149
0.0
100
AcDbLayout
  1
Layout2
 70
     1
 71
     2
 10
0.0
 20
0.0
 11
0.0
 21
0.0
 12
0.0
 22
0.0
 32
0.0
 14
0.0
 24
0.0
 34
0.0
 15
0.0
 25
0.0
 35
0.0
146
0.0
 13
0.0
 23
0.0
 33
0.0
 16
1.0
 26
0.0
 36
0.0
 17
0.0
 27
1.0
 37
0.0
 76
     0
330
23
  0
LAYOUT
  5
22
102
{ACAD_REACTORS
330
1A
102
}
330
1A
100
AcDbPlotSettings
  1

  2
none_device
  4
Letter_(8.50_x_11.00_Inches)
  6

 40
6.35
 41
6.35
 42
6.35000508
 43
6.35000508
 44
215.9
 45
279.4
 46
0.0
 47
0.0
 48
0.0
 49
0.0
140
0.0
141
0.0
142
1.0
143
1.0
 70
  1712
 72
     1
 73
     0
 74
     0
  7

 75
     0
 76
     0
 77
     2
 78
   300
147
1.0
148
0.0
149
0.0
100
AcDbLayout
  1
Model
 70
     1
 71
     0
 10
0.0
 20
0.0
 11
297.0
 21
210.0
 12
0.0
 22
0.0
 32
0.0
 14
0.0
 24
0.0
 34
0.0
 15
297.0
 25
210.0
 35
0.0
146
0.0
 13
0.0
 23
0.0
 33
0.0
 16
1.0
 26
0.0
 36
0.0
 17
0.0
 27
1.0
 37
0.0
 76
     0
330
1F
331
29
  0
MATERIAL
  5
45
102
{ACAD_REACTORS
330
43
102
}
330
43
100
AcDbMaterial
  1
ByBlock
  0
MATERIAL
  5
44
102
{ACAD_REACTORS
330
43
102
}
330
43
100
AcDbMaterial
  1
ByLayer
  0
MATERIAL
  5
46
102
{ACAD_REACTORS
330
43
102
}
330
43
100
AcDbMaterial
  1
Global
  0
MLEADERSTYLE
  5
6C
102
{ACAD_REACTORS
330
6B
102
}
330
6B
100
AcDbMLeaderStyle
170
     2
171
     1
172
     0
 90
        2
 40
0.0
 41
0.0
173
     1
 91
-1056964608
340
14
 92
       -2
290
     1
 42
2.0
291
     1
 43
8.0
  3
Standard
341
0
 44
4.0
300

342
11
174
     1
178
     6
175
     1
176
     0
 93
-1056964608
 45
4.0
292
     0
297
     0
 46
4.0
343
0
 94
-1056964608
 47
1.0
 49
1.0
140
1.0
293
     1
141
0.0
294
     1
177
     0
142
1.0
295
     0
296
     0
143
3.75
1001
ACAD_MLEADERVER
1070
     2
  0
MLINESTYLE
  5
18
102
{ACAD_REACTORS
330
17
102
}
330
17
100
AcDbMlineStyle
  2
Standard
 70
     0
  3

 62
   256
 51
90.0
 52
90.0
 71
     2
 49
0.5
 62
   256
  6
BYLAYER
 49
-0.5
 62
   256
  6
BYLAYER
  0
ACDBPLACEHOLDER
  5
F
102
{ACAD_REACTORS
330
E
102
}
330
E
  0
SCALE
  5
48
102
{ACAD_REACTORS
330
47
102
}
330
47
100
AcDbScale
 70
     0
300
1:1
140
1.0
141
1.0
290
     1
  0
SCALE
  5
49
102
{ACAD_REACTORS
330
47
102
}
330
47
100
AcDbScale
 70
     0
300
1:2
140
1.0
141
2.0
290
     0
  0
SCALE
  5
4A
102
{ACAD_REACTORS
330
47
102
}
330
47
100
AcDbScale
 70
     0
300
1:4
140
1.0
141
4.0
290
     0
  0
SCALE
  5
4B
102
{ACAD_REACTORS
330
47
102
}
330
47
100
AcDbScale
 70
     0
300
1:5
140
1.0
141
5.0
290
     0
  0
SCALE
  5
4C
102
{ACAD_REACTORS
330
47
102
}
330
47
100
AcDbScale
 70
     0
300
1:8
140
1.0
141
8.0
290
     0
  0
SCALE
  5
4D
102
{ACAD_REACTORS
330
47
102
}
330
47
100
AcDbScale
 70
     0
300
1:10
140
1.0
141
10.0
290
     0
  0
SCALE
  5
4E
102
{ACAD_REACTORS
330
47
102
}
330
47
100
AcDbScale
 70
     0
300
1:16
140
1.0
141
16.0
290
     0
  0
SCALE
  5
4F
102
{ACAD_REACTORS
330
47
102
}
330
47
100
AcDbScale
 70
     0
300
1:20
140
1.0
141
20.0
290
     0
  0
SCALE
  5
50
102
{ACAD_REACTORS
330
47
102
}
330
47
100
AcDbScale
 70
     0
300
1:30
140
1.0
141
30.0
290
     0
  0
SCALE
  5
51
102
{ACAD_REACTORS
330
47
102
}
330
47
100
AcDbScale
 70
     0
300
1:40
140
1.0
141
40.0
290
     0
  0
SCALE
  5
52
102
{ACAD_REACTORS
330
47
102
}
330
47
100
AcDbScale
 70
     0
300
1:50
140
1.0
141
50.0
290
     0
  0
SCALE
  5
53
102
{ACAD_REACTORS
330
47
102
}
330
47
100
AcDbScale
 70
     0
300
1:100
140
1.0
141
100.0
290
     0
  0
SCALE
  5
54
102
{ACAD_REACTORS
330
47
102
}
330
47
100
AcDbScale
 70
     0
300
2:1
140
2.0
141
1.0
290
     0
  0
SCALE
  5
55
102
{ACAD_REACTORS
330
47
102
}
330
47
100
AcDbScale
 70
     0
300
4:1
140
4.0
141
1.0
290
     0
  0
SCALE
  5
56
102
{ACAD_REACTORS
330
47
102
}
330
47
100
AcDbScale
 70
     0
300
8:1
140
8.0
141
1.0
290
     0
  0
SCALE
  5
57
102
{ACAD_REACTORS
330
47
102
}
330
47
100
AcDbScale
 70
     0
300
10:1
140
10.0
141
1.0
290
     0
  0
SCALE
  5
58
102
{ACAD_REACTORS
330
47
102
}
330
47
100
AcDbScale
 70
     0
300
100:1
140
100.0
141
1.0
290
     0
  0
SCALE
  5
59
102
{ACAD_REACTORS
330
47
102
}
330
47
100
AcDbScale
 70
     0
300
1/128" = 1'-0"
140
0.0078125
141
12.0
290
     0
  0
SCALE
  5
5A
102
{ACAD_REACTORS
330
47
102
}
330
47
100
AcDbScale
 70
     0
300
1/64" = 1'-0"
140
0.015625
141
12.0
290
     0
  0
SCALE
  5
5B
102
{ACAD_REACTORS
330
47
102
}
330
47
100
AcDbScale
 70
     0
300
1/32" = 1'-0"
140
0.03125
141
12.0
290
     0
  0
SCALE
  5
5C
102
{ACAD_REACTORS
330
47
102
}
330
47
100
AcDbScale
 70
     0
300
1/16" = 1'-0"
140
0.0625
141
12.0
290
     0
  0
SCALE
  5
5D
102
{ACAD_REACTORS
330
47
102
}
330
47
100
AcDbScale
 70
     0
300
3/32" = 1'-0"
140
0.09375
141
12.0
290
     0
  0
SCALE
  5
5E
102
{ACAD_REACTORS
330
47
102
}
330
47
100
AcDbScale
 70
     0
300
1/8" = 1'-0"
140
0.125
141
12.0
290
     0
  0
SCALE
  5
5F
102
{ACAD_REACTORS
330
47
102
}
330
47
100
AcDbScale
 70
     0
300
3/16" = 1'-0"
140
0.1875
141
12.0
290
     0
  0
SCALE
  5
60
102
{ACAD_REACTORS
330
47
102
}
330
47
100
AcDbScale
 70
     0
300
1/4" = 1'-0"
140
0.25
141
12.0
290
     0
  0
SCALE
  5
61
102
{ACAD_REACTORS
330
47
102
}
330
47
100
AcDbScale
 70
     0
300
3/8" = 1'-0"
140
0.375
141
12.0
290
     0
  0
SCALE
  5
62
102
{ACAD_REACTORS
330
47
102
}
330
47
100
AcDbScale
 70
     0
300
1/2" = 1'-0"
140
0.5
141
12.0
290
     0
  0
SCALE
  5
63
102
{ACAD_REACTORS
330
47
102
}
330
47
100
AcDbScale
 70
     0
300
3/4" = 1'-0"
140
0.75
141
12.0
290
     0
  0
SCALE
  5
64
102
{ACAD_REACTORS
330
47
102
}
330
47
100
AcDbScale
 70
     0
300
1" = 1'-0"
140
1.0
141
12.0
290
     0
  0
SCALE
  5
65
102
{ACAD_REACTORS
330
47
102
}
330
47
100
AcDbScale
 70
     0
300
1-1/2" = 1'-0"
140
1.5
141
12.0
290
     0
  0
SCALE
  5
66
102
{ACAD_REACTORS
330
47
102
}
330
47
100
AcDbScale
 70
     0
300
3" = 1'-0"
140
3.0
141
12.0
290
     0
  0
SCALE
  5
67
102
{ACAD_REACTORS
330
47
102
}
330
47
100
AcDbScale
 70
     0
300
6" = 1'-0"
140
6.0
141
12.0
290
     0
  0
SCALE
  5
68
102
{ACAD_REACTORS
330
47
102
}
330
47
100
AcDbScale
 70
     0
300
1'-0" = 1'-0"
140
12.0
141
12.0
290
     0
  0
TABLESTYLE
  5
6A
102
{ACAD_REACTORS
330
69
102
}
102
{ACAD_XDICTIONARY
360
127
102
}
330
69
100
AcDbTableStyle
  3
Standard
 70
     0
 71
     0
 40
0.06
 41
0.06
280
     0
281
     0
  7
Standard
140
4.5
170
     2
 62
     0
 63
   257
283
     0
274
    -2
284
     1
 64
     0
275
    -2
285
     1
 65
     0
276
    -2
286
     1
 66
     0
277
    -2
287
     1
 67
     0
278
    -2
288
     1
 68
     0
279
    -2
289
     1
 69
     0
  7
Standard
140
6.0
170
     5
 62
     0
 63
   257
283
     0
274
    -2
284
     1
 64
     0
275
    -2
285
     1
 65
     0
276
    -2
286
     1
 66
     0
277
    -2
287
     1
 67
     0
278
    -2
288
     1
 68
     0
279
    -2
289
     1
 69
     0
  7
Standard
140
4.5
170
     5
 62
     0
 63
   257
283
     0
274
    -2
284
     1
 64
     0
275
    -2
285
     1
 65
     0
276
    -2
286
     1
 66
     0
277
    -2
287
     1
 67
     0
278
    -2
288
     1
 68
     0
279
    -2
289
     1
 69
     0
  0
DICTIONARYVAR
  5
126
102
{ACAD_REACTORS
330
125
102
}
330
125
100
DictionaryVariables
280
     0
  1
1:1
  0
DICTIONARYVAR
  5
12D
102
{ACAD_REACTORS
330
125
102
}
330
125
100
DictionaryVariables
280
     0
  1
Standard
  0
DICTIONARYVAR
  5
12C
102
{ACAD_REACTORS
330
125
102
}
330
125
100
DictionaryVariables
280
     0
  1
Standard
  0
DICTIONARY
  5
127
330
6A
100
AcDbDictionary
280
     1
281
     1
  3
ACAD_ROUNDTRIP_2008_TABLESTYLE_CELLSTYLEMAP
360
129
  3
ACAD_XREC_ROUNDTRIP
360
128
  0
CELLSTYLEMAP
  5
129
102
{ACAD_REACTORS
330
127
102
}
330
127
100
AcDbCellStyleMap
 90
        3
300
CELLSTYLE
  1
TABLEFORMAT_BEGIN
 90
        5
170
     1
 91
        0
 92
    32768
 62
   257
 93
        1
300
CONTENTFORMAT
  1
CONTENTFORMAT_BEGIN
 90
        0
 91
        0
 92
        4
 93
        0
300

 40
0.0
140
1.0
 94
        5
 62
     0
340
11
144
6.0
309
CONTENTFORMAT_END
171
     1
301
MARGIN
  1
CELLMARGIN_BEGIN
 40
1.5
 40
1.5
 40
1.5
 40
1.5
 40
1.5
 40
1.5
309
CELLMARGIN_END
 94
        6
 95
        1
302
GRIDFORMAT
  1
GRIDFORMAT_BEGIN
 90
        0
 91
        1
 62
     0
 92
       -2
340
14
 93
        0
 40
0.045
309
GRIDFORMAT_END
 95
        2
302
GRIDFORMAT
  1
GRIDFORMAT_BEGIN
 90
        0
 91
        1
 62
     0
 92
       -2
340
14
 93
        0
 40
0.045
309
GRIDFORMAT_END
 95
        4
302
GRIDFORMAT
  1
GRIDFORMAT_BEGIN
 90
        0
 91
        1
 62
     0
 92
       -2
340
14
 93
        0
 40
0.045
309
GRIDFORMAT_END
 95
        8
302
GRIDFORMAT
  1
GRIDFORMAT_BEGIN
 90
        0
 91
        1
 62
     0
 92
       -2
340
14
 93
        0
 40
0.045
309
GRIDFORMAT_END
 95
       16
302
GRIDFORMAT
  1
GRIDFORMAT_BEGIN
 90
        0
 91
        1
 62
     0
 92
       -2
340
14
 93
        0
 40
0.045
309
GRIDFORMAT_END
 95
       32
302
GRIDFORMAT
  1
GRIDFORMAT_BEGIN
 90
        0
 91
        1
 62
     0
 92
       -2
340
14
 93
        0
 40
0.045
309
GRIDFORMAT_END
309
TABLEFORMAT_END
  1
CELLSTYLE_BEGIN
 90
        1
 91
        1
300
_TITLE
309
CELLSTYLE_END
300
CELLSTYLE
  1
TABLEFORMAT_BEGIN
 90
        5
170
     1
 91
        0
 92
        0
 62
   257
 93
        1
300
CONTENTFORMAT
  1
CONTENTFORMAT_BEGIN
 90
        0
 91
        0
 92
        4
 93
        0
300

 40
0.0
140
1.0
 94
        5
 62
     0
340
11
144
4.5
309
CONTENTFORMAT_END
171
     1
301
MARGIN
  1
CELLMARGIN_BEGIN
 40
1.5
 40
1.5
 40
1.5
 40
1.5
 40
1.5
 40
1.5
309
CELLMARGIN_END
 94
        6
 95
        1
302
GRIDFORMAT
  1
GRIDFORMAT_BEGIN
 90
        0
 91
        1
 62
     0
 92
       -2
340
14
 93
        0
 40
0.045
309
GRIDFORMAT_END
 95
        2
302
GRIDFORMAT
  1
GRIDFORMAT_BEGIN
 90
        0
 91
        1
 62
     0
 92
       -2
340
14
 93
        0
 40
0.045
309
GRIDFORMAT_END
 95
        4
302
GRIDFORMAT
  1
GRIDFORMAT_BEGIN
 90
        0
 91
        1
 62
     0
 92
       -2
340
14
 93
        0
 40
0.045
309
GRIDFORMAT_END
 95
        8
302
GRIDFORMAT
  1
GRIDFORMAT_BEGIN
 90
        0
 91
        1
 62
     0
 92
       -2
340
14
 93
        0
 40
0.045
309
GRIDFORMAT_END
 95
       16
302
GRIDFORMAT
  1
GRIDFORMAT_BEGIN
 90
        0
 91
        1
 62
     0
 92
       -2
340
14
 93
        0
 40
0.045
309
GRIDFORMAT_END
 95
       32
302
GRIDFORMAT
  1
GRIDFORMAT_BEGIN
 90
        0
 91
        1
 62
     0
 92
       -2
340
14
 93
        0
 40
0.045
309
GRIDFORMAT_END
309
TABLEFORMAT_END
  1
CELLSTYLE_BEGIN
 90
        2
 91
        1
300
_HEADER
309
CELLSTYLE_END
300
CELLSTYLE
  1
TABLEFORMAT_BEGIN
 90
        5
170
     1
 91
        0
 92
        0
 62
   257
 93
        1
300
CONTENTFORMAT
  1
CONTENTFORMAT_BEGIN
 90
        0
 91
        0
 92
        4
 93
        0
300

 40
0.0
140
1.0
 94
        2
 62
     0
340
11
144
4.5
309
CONTENTFORMAT_END
171
     1
301
MARGIN
  1
CELLMARGIN_BEGIN
 40
1.5
 40
1.5
 40
1.5
 40
1.5
 40
1.5
 40
1.5
309
CELLMARGIN_END
 94
        6
 95
        1
302
GRIDFORMAT
  1
GRIDFORMAT_BEGIN
 90
        0
 91
        1
 62
     0
 92
       -2
340
14
 93
        0
 40
0.045
309
GRIDFORMAT_END
 95
        2
302
GRIDFORMAT
  1
GRIDFORMAT_BEGIN
 90
        0
 91
        1
 62
     0
 92
       -2
340
14
 93
        0
 40
0.045
309
GRIDFORMAT_END
 95
        4
302
GRIDFORMAT
  1
GRIDFORMAT_BEGIN
 90
        0
 91
        1
 62
     0
 92
       -2
340
14
 93
        0
 40
0.045
309
GRIDFORMAT_END
 95
        8
302
GRIDFORMAT
  1
GRIDFORMAT_BEGIN
 90
        0
 91
        1
 62
     0
 92
       -2
340
14
 93
        0
 40
0.045
309
GRIDFORMAT_END
 95
       16
302
GRIDFORMAT
  1
GRIDFORMAT_BEGIN
 90
        0
 91
        1
 62
     0
 92
       -2
340
14
 93
        0
 40
0.045
309
GRIDFORMAT_END
 95
       32
302
GRIDFORMAT
  1
GRIDFORMAT_BEGIN
 90
        0
 91
        1
 62
     0
 92
       -2
340
14
 93
        0
 40
0.045
309
GRIDFORMAT_END
309
TABLEFORMAT_END
  1
CELLSTYLE_BEGIN
 90
        3
 91
        2
300
_DATA
309
CELLSTYLE_END
  0
XRECORD
  5
128
102
{ACAD_REACTORS
330
127
102
}
330
127
100
AcDbXrecord
280
     1
102
ACAD_ROUNDTRIP_PRE2007_TABLESTYLE
 90
        4
 91
        0
  1

 92
        4
 93
        0
  2

 94
        4
 95
        0
  3

  0
ENDSEC
  0
EOF
