999
DXF file: 1087950096.dxf
999
Pro/ENGINEER 2020053 by Parametric Technology Corporation
  0
SECTION
  2
HEADER
  9
$ACADVER
  1
AC1021
  9
$DWGCODEPAGE
  3
ANSI_1252
  9
$EXTMAX
 10
420.0
 20
297.0
 30
0.0
  9
$EXTMIN
 10
0.0
 20
0.0
 30
0.0
  9
$LIMMIN
 10
0.0
 20
0.0
  9
$LIMMAX
 10
420.0
 20
297.0
  9
$VIEWCTR
 10
210.0
 20
148.5
  9
$VIEWSIZE
 40
297.0
  9
$CLAYER
  8
0
  9
$LTSCALE
 40
23.1
  9
$CELTYPE
  6
BYLAYER
  9
$DIMSCALE
 40
1.0
  9
$DIMASZ
 40
3.5
  9
$DIMEXO
 40
0.0
  9
$DIMDLI
 40
15.96
  9
$DIMEXE
 40
1.5
  9
$DIMCEN
 40
3.78
  9
$DIMLFAC
 40
1.0
  9
$DIMBLK
  1
_FILLED
  9
$DIMALT
 70
0
  9
$DIMALTF
 40
0.0393700787
  9
$DIMTXT
 40
3.5
  9
$DIMTOL
 70
1
  9
$DIMLIM
 70
0
  9
$DIMTFAC
 40
1.0
  9
$DIMTP
 40
0.05
  9
$DIMTM
 40
0.05
  9
$DIMGAP
 40
0.625
  9
$DIMDSEP
 70
46
  9
$AUNITS
 70
0
  9
$PDMODE
 70
3
  9
$PDSIZE
 40
0.3125
  9
$HANDSEED
  5
2E4
  9
$TILEMODE
 70
1
  9
$MEASUREMENT
 70
1
  9
$INSUNITS
 70
4
  0
ENDSEC
  0
SECTION
  2
CLASSES
  0
CLASS
  1
ACDBDICTIONARYWDFLT
  2
AcDbDictionaryWithDefault
  3
AutoCAD 2000
 90
0
 91
1
280
0
281
0
  0
CLASS
  1
ACDBPLACEHOLDER
  2
AcDbPlaceHolder
  3
AutoCAD 2000
 90
0
 91
1
280
0
281
0
  0
CLASS
  1
LAYOUT
  2
AcDbLayout
  3
AutoCAD 2000
 90
0
 91
0
280
0
281
0
  0
ENDSEC
  0
SECTION
  2
TABLES
  0
TABLE
  2
VPORT
  5
8
100
AcDbSymbolTable
 70
2
  0
VPORT
  5
1F4
100
AcDbSymbolTableRecord
100
AcDbViewportTableRecord
  2
*ACTIVE
 70
0
 10
0.0
 20
0.0
 11
1.0
 21
1.0
 12
210.0
 22
148.5
 13
0.0
 23
0.0
 14
1.0
 24
1.0
 15
0.0
 25
0.0
 16
0.0
 26
0.0
 36
1.0
 17
0.0
 27
0.0
 37
0.0
 40
297.0
 41
1.4141414141
 42
50.0
 43
0.0
 44
0.0
 50
0.0
 51
0.0
 71
0
 72
100
 73
1
 74
1
 75
0
 76
0
 77
0
 78
0
  0
ENDTAB
  0
TABLE
  2
LTYPE
  5
5
100
AcDbSymbolTable
 70
6
  0
LTYPE
  5
14
100
AcDbSymbolTableRecord
100
AcDbLinetypeTableRecord
  2
BYBLOCK
 70
0
  3

 72
65
 73
0
 40
0.0
  0
LTYPE
  5
15
100
AcDbSymbolTableRecord
100
AcDbLinetypeTableRecord
  2
BYLAYER
 70
0
  3

 72
65
 73
0
 40
0.0
  0
LTYPE
  5
16
100
AcDbSymbolTableRecord
100
AcDbLinetypeTableRecord
  2
CONTINUOUS
 70
64
  3
Solid line
 72
65
 73
0
 40
0.0
  0
LTYPE
  5
1F5
100
AcDbSymbolTableRecord
100
AcDbLinetypeTableRecord
  2
CENTER
 70
64
  3
____ _ ____ _ ____ _ ____ _ ____ _ ____ _ ____
 72
65
 73
4
 40
0.6
 49
0.375
 74
0
 49
-0.075
 74
0
 49
0.075
 74
0
 49
-0.075
 74
0
  0
LTYPE
  5
1F6
100
AcDbSymbolTableRecord
100
AcDbLinetypeTableRecord
  2
HIDDEN
 70
64
  3
- - - - - - - - - - - - - - - - - - - -
 72
65
 73
2
 40
0.2
 49
0.1
 74
0
 49
-0.1
 74
0
  0
LTYPE
  5
1F7
100
AcDbSymbolTableRecord
100
AcDbLinetypeTableRecord
  2
PHANTOM
 70
64
  3
_____ _ _ _____ _ _ _____ _ _ _____
 72
65
 73
6
 40
0.8
 49
0.45
 74
0
 49
-0.05
 74
0
 49
0.1
 74
0
 49
-0.05
 74
0
 49
0.1
 74
0
 49
-0.05
 74
0
  0
LTYPE
  5
1F8
100
AcDbSymbolTableRecord
100
AcDbLinetypeTableRecord
  2
DOT
 70
64
  3
. . . . . . . . . . . . . . . . . . . .
 72
65
 73
2
 40
0.2
 49
0.1
 74
0
 49
-0.1
 74
0
  0
LTYPE
  5
1F9
100
AcDbSymbolTableRecord
100
AcDbLinetypeTableRecord
  2
DASHED
 70
64
  3
- - - - - - - - - - - - - - - - - - - -
 72
65
 73
2
 40
0.2
 49
0.1
 74
0
 49
-0.1
 74
0
  0
ENDTAB
  0
TABLE
  2
LAYER
  5
2
100
AcDbSymbolTable
 70
36
  0
LAYER
  5
10
100
AcDbSymbolTableRecord
100
AcDbLayerTableRecord
  2
0
 70
0
 62
7
  6
CONTINUOUS
370
-3
390
F
  0
LAYER
  5
1FA
100
AcDbSymbolTableRecord
100
AcDbLayerTableRecord
  2
DEFAULT_1
 70
0
 62
7
  6
CENTER
370
-3
390
F
  0
LAYER
  5
1FB
100
AcDbSymbolTableRecord
100
AcDbLayerTableRecord
  2
DEFAULT_2
 70
0
 62
1
  6
HIDDEN
370
-3
390
F
  0
LAYER
  5
1FC
100
AcDbSymbolTableRecord
100
AcDbLayerTableRecord
  2
DEFAULT_3
 70
0
 62
7
  6
PHANTOM
370
-3
390
F
  0
LAYER
  5
1FD
100
AcDbSymbolTableRecord
100
AcDbLayerTableRecord
  2
BG_STARTBEZUEGE
 70
0
 62
7
  6
CONTINUOUS
370
-3
390
F
  0
LAYER
  5
1FE
100
AcDbSymbolTableRecord
100
AcDbLayerTableRecord
  2
CUT
 70
0
 62
7
  6
CONTINUOUS
370
-3
390
F
  0
LAYER
  5
1FF
100
AcDbSymbolTableRecord
100
AcDbLayerTableRecord
  2
HILFEN
 70
0
 62
7
  6
CONTINUOUS
370
-3
390
F
  0
LAYER
  5
200
100
AcDbSymbolTableRecord
100
AcDbLayerTableRecord
  2
K_CUT
 70
0
 62
7
  6
CONTINUOUS
370
-3
390
F
  0
LAYER
  5
201
100
AcDbSymbolTableRecord
100
AcDbLayerTableRecord
  2
NOCUT
 70
0
 62
7
  6
CONTINUOUS
370
-3
390
F
  0
LAYER
  5
202
100
AcDbSymbolTableRecord
100
AcDbLayerTableRecord
  2
PLATZIERUNG
 70
0
 62
7
  6
CONTINUOUS
370
-3
390
F
  0
LAYER
  5
203
100
AcDbSymbolTableRecord
100
AcDbLayerTableRecord
  2
T_STARTBEZUEGE
 70
0
 62
7
  6
CONTINUOUS
370
-3
390
F
  0
LAYER
  5
204
100
AcDbSymbolTableRecord
100
AcDbLayerTableRecord
  2
_03_2D_ZEICHNUNG_BEMASSUNGEN
 70
0
 62
7
  6
CONTINUOUS
370
-3
390
F
  0
LAYER
  5
205
100
AcDbSymbolTableRecord
100
AcDbLayerTableRecord
  2
_04_NOTIZEN
 70
0
 62
7
  6
CONTINUOUS
370
-3
390
F
  0
LAYER
  5
206
100
AcDbSymbolTableRecord
100
AcDbLayerTableRecord
  2
_05_2D_ELEMENTE
 70
0
 62
7
  6
CONTINUOUS
370
-3
390
F
  0
LAYER
  5
207
100
AcDbSymbolTableRecord
100
AcDbLayerTableRecord
  2
_07_EINRASTLINIEN
 70
0
 62
7
  6
CONTINUOUS
370
-3
390
F
  0
LAYER
  5
208
100
AcDbSymbolTableRecord
100
AcDbLayerTableRecord
  2
_21_KURVEN
 70
0
 62
7
  6
CONTINUOUS
370
-3
390
F
  0
LAYER
  5
209
100
AcDbSymbolTableRecord
100
AcDbLayerTableRecord
  2
_22_FLAECHEN
 70
0
 62
7
  6
CONTINUOUS
370
-3
390
F
  0
LAYER
  5
20A
100
AcDbSymbolTableRecord
100
AcDbLayerTableRecord
  2
_26_BEZUGSACHSEN
 70
0
 62
7
  6
CONTINUOUS
370
-3
390
F
  0
LAYER
  5
20B
100
AcDbSymbolTableRecord
100
AcDbLayerTableRecord
  2
_27_BEZUGSEBENEN
 70
0
 62
7
  6
CONTINUOUS
370
-3
390
F
  0
LAYER
  5
20C
100
AcDbSymbolTableRecord
100
AcDbLayerTableRecord
  2
_28_BEZUGSPUNKTE
 70
0
 62
7
  6
CONTINUOUS
370
-3
390
F
  0
LAYER
  5
20D
100
AcDbSymbolTableRecord
100
AcDbLayerTableRecord
  2
_29_KOORDINATENSYSTEME
 70
0
 62
7
  6
CONTINUOUS
370
-3
390
F
  0
LAYER
  5
20E
100
AcDbSymbolTableRecord
100
AcDbLayerTableRecord
  2
_30_VOLUMEN
 70
0
 62
7
  6
CONTINUOUS
370
-3
390
F
  0
LAYER
  5
20F
100
AcDbSymbolTableRecord
100
AcDbLayerTableRecord
  2
_MDL_SMALL
 70
0
 62
7
  6
CONTINUOUS
370
-3
390
F
  0
ENDTAB
  0
TABLE
  2
STYLE
  5
3
100
AcDbSymbolTable
 70
1
  0
STYLE
  5
11
100
AcDbSymbolTableRecord
100
AcDbTextStyleTableRecord
  2
STANDARD
 70
0
 40
0.0
 41
0.7
 50
0.0
 71
0
 42
0.2
  3
SIMPLEX.SHX
  4

  0
STYLE
  5
210
100
AcDbSymbolTableRecord
100
AcDbTextStyleTableRecord
  2
TEXTSTYLE_1
 70
0
 40
0.0
 41
0.8
 50
0.0
 71
0
 42
0.2
  3
gdt
  4

  0
STYLE
  5
211
100
AcDbSymbolTableRecord
100
AcDbTextStyleTableRecord
  2
TEXTSTYLE_2
 70
0
 40
0.0
 41
0.7
 50
0.0
 71
0
 42
0.2
  3
gdt
  4

  0
ENDTAB
  0
TABLE
  2
VIEW
  5
6
100
AcDbSymbolTable
 70
0
  0
ENDTAB
  0
TABLE
  2
UCS
  5
7
100
AcDbSymbolTable
 70
0
  0
ENDTAB
  0
TABLE
  2
APPID
  5
9
100
AcDbSymbolTable
 70
1
  0
APPID
  5
212
100
AcDbSymbolTableRecord
100
AcDbRegAppTableRecord
  2
ACAD
 70
0
  0
ENDTAB
  0
TABLE
  2
BLOCK_RECORD
  5
1
100
AcDbSymbolTable
 70
0
  0
BLOCK_RECORD
  5
213
100
AcDbSymbolTableRecord
100
AcDbBlockTableRecord
  2
*Model_Space
  0
BLOCK_RECORD
  5
214
100
AcDbSymbolTableRecord
100
AcDbBlockTableRecord
  2
*Paper_Space
  0
BLOCK_RECORD
  5
215
100
AcDbSymbolTableRecord
100
AcDbBlockTableRecord
  2
_FILLED
  0
BLOCK_RECORD
  5
216
100
AcDbSymbolTableRecord
100
AcDbBlockTableRecord
  2
*D0
  0
BLOCK_RECORD
  5
217
100
AcDbSymbolTableRecord
100
AcDbBlockTableRecord
  2
*D1
  0
BLOCK_RECORD
  5
218
100
AcDbSymbolTableRecord
100
AcDbBlockTableRecord
  2
*D2
  0
BLOCK_RECORD
  5
219
100
AcDbSymbolTableRecord
100
AcDbBlockTableRecord
  2
*D3
  0
BLOCK_RECORD
  5
21A
100
AcDbSymbolTableRecord
100
AcDbBlockTableRecord
  2
*D4
  0
BLOCK_RECORD
  5
21B
100
AcDbSymbolTableRecord
100
AcDbBlockTableRecord
  2
*D5
  0
ENDTAB
  0
TABLE
  2
DIMSTYLE
  5
A
100
AcDbSymbolTable
 70
1
100
AcDbDimStyleTable
 71
0
  0
DIMSTYLE
105
21C
100
AcDbSymbolTableRecord
100
AcDbDimStyleTableRecord
  2
STANDARD
 70
0
  3

  4

 40
1.0
 41
3.5
 42
0.0
 43
0.38
 44
1.5
 45
0.0
 46
0.0
 47
0.05
 48
0.05
140
3.5
141
0.09
142
0.0
143
25.4
144
1.0
145
0.0
146
1.0
147
0.625
 71
1
 72
0
 73
0
 74
0
 75
0
 76
0
 77
1
 78
8
 79
2
170
0
171
1
172
0
173
0
174
0
175
0
176
0
177
0
178
2
270
2
179
2
271
2
272
2
273
2
274
2
275
0
280
0
281
0
282
0
283
1
284
8
285
0
286
0
287
3
288
0
340
11
278
46
341
215
342
215
343
215
344
215
  0
DIMSTYLE
105
21D
100
AcDbSymbolTableRecord
100
AcDbDimStyleTableRecord
  2
DIMSTYLE_1
 70
0
  3

  4

 40
1.0
 41
3.5
 42
0.0
 43
0.38
 44
1.5
 45
0.0
 46
0.0
 47
0.5
 48
0.5
140
3.5
141
0.09
142
0.0
143
25.4
144
1.0
145
0.0
146
1.0
147
0.875
 71
0
 72
0
 73
0
 74
0
 75
0
 76
0
 77
1
 78
8
 79
2
170
0
171
1
172
0
173
0
174
0
175
0
176
0
177
0
178
2
270
2
179
2
271
2
272
2
273
2
274
2
275
0
280
0
281
0
282
0
283
1
284
8
285
0
286
0
287
3
288
0
340
11
278
46
341
215
342
215
343
215
344
215
  0
DIMSTYLE
105
21E
100
AcDbSymbolTableRecord
100
AcDbDimStyleTableRecord
  2
DIMSTYLE_2
 70
0
  3

  4

 40
1.0
 41
3.5
 42
0.0
 43
0.38
 44
1.5
 45
0.0
 46
0.0
 47
0.3
 48
0.3
140
3.5
141
0.09
142
0.0
143
25.4
144
1.0
145
0.0
146
1.0
147
0.875
 71
0
 72
0
 73
0
 74
0
 75
0
 76
0
 77
1
 78
8
 79
2
170
0
171
1
172
0
173
0
174
0
175
0
176
0
177
0
178
2
270
2
179
2
271
2
272
2
273
2
274
2
275
0
280
0
281
0
282
0
283
1
284
8
285
0
286
0
287
3
288
0
340
11
278
46
341
215
342
215
343
215
344
215
  0
ENDTAB
  0
ENDSEC
  0
SECTION
  2
BLOCKS
  0
BLOCK
  5
20
100
AcDbEntity
  8
0
100
AcDbBlockBegin
  2
*Model_Space
 70
0
 10
0.0
 20
0.0
 30
0.0
  3
*Model_Space
  1

  0
ENDBLK
  5
21
100
AcDbEntity
  8
0
100
AcDbBlockEnd
  0
BLOCK
  5
1C
100
AcDbEntity
  8
0
100
AcDbBlockBegin
  2
*Paper_Space
 70
0
 10
0.0
 20
0.0
 30
0.0
  3
*Paper_Space
  1

  0
ENDBLK
  5
1D
100
AcDbEntity
  8
0
100
AcDbBlockEnd
  0
BLOCK
  5
21F
100
AcDbEntity
  8
0
100
AcDbBlockBegin
  2
_FILLED
 70
64
 10
0.0
 20
0.0
  3
_FILLED
  1

  0
SOLID
  5
220
100
AcDbEntity
  8
0
  6
BYBLOCK
 62
0
100
AcDbTrace
 10
0.0
 20
0.0
 11
-1.0
 21
0.125
 12
-1.0
 22
-0.125
 13
-1.0
 23
-0.125
  0
ENDBLK
  5
221
100
AcDbEntity
  8
0
  6
BYBLOCK
 62
0
100
AcDbBlockEnd
  0
BLOCK
  5
222
100
AcDbEntity
  8
_03_2D_ZEICHNUNG_BEMASSUNGEN
100
AcDbBlockBegin
 62
7
  6
CONTINUOUS
  2
*D0
 70
65
 10
0.0
 20
0.0
  3
*D0
  1

  0
TEXT
  5
223
100
AcDbEntity
  8
_03_2D_ZEICHNUNG_BEMASSUNGEN
100
AcDbText
 62
2
  6
CONTINUOUS
 10
54.875
 20
64.375
  7
STANDARD
 40
3.5
  1
193
 41
0.6904761905
 72
1
 11
58.5
 21
64.375
100
AcDbText
  0
LINE
  5
224
100
AcDbEntity
  8
_03_2D_ZEICHNUNG_BEMASSUNGEN
100
AcDbLine
 62
7
  6
CONTINUOUS
 10
-38.0
 20
37.1619974945
 11
-38.0
 21
65.0
  0
LINE
  5
225
100
AcDbEntity
  8
_03_2D_ZEICHNUNG_BEMASSUNGEN
100
AcDbLine
 62
7
  6
CONTINUOUS
 10
155.0
 20
37.1619974945
 11
155.0
 21
65.0
  0
LINE
  5
226
100
AcDbEntity
  8
_03_2D_ZEICHNUNG_BEMASSUNGEN
100
AcDbLine
 62
7
  6
CONTINUOUS
 10
-38.0
 20
63.5
 11
58.5
 21
63.5
  0
LINE
  5
227
100
AcDbEntity
  8
_03_2D_ZEICHNUNG_BEMASSUNGEN
100
AcDbLine
 62
7
  6
CONTINUOUS
 10
155.0
 20
63.5
 11
58.5
 21
63.5
  0
INSERT
  5
228
100
AcDbEntity
  8
_03_2D_ZEICHNUNG_BEMASSUNGEN
100
AcDbBlockReference
 62
7
  6
CONTINUOUS
  2
_FILLED
 10
-38.0
 20
63.5
 41
3.5
 42
3.5
 43
3.5
 50
180.0
  0
INSERT
  5
229
100
AcDbEntity
  8
_03_2D_ZEICHNUNG_BEMASSUNGEN
100
AcDbBlockReference
 62
7
  6
CONTINUOUS
  2
_FILLED
 10
155.0
 20
63.5
 41
3.5
 42
3.5
 43
3.5
  0
ENDBLK
  5
22A
100
AcDbEntity
  8
0
  6
BYBLOCK
 62
0
100
AcDbBlockEnd
  0
BLOCK
  5
22B
100
AcDbEntity
  8
_03_2D_ZEICHNUNG_BEMASSUNGEN
100
AcDbBlockBegin
 62
7
  6
CONTINUOUS
  2
*D1
 70
65
 10
0.0
 20
0.0
  3
*D1
  1

  0
TEXT
  5
22C
100
AcDbEntity
  8
_03_2D_ZEICHNUNG_BEMASSUNGEN
100
AcDbText
 62
2
  6
CONTINUOUS
 10
-47.875
 20
-4.9583333333
  7
TEXTSTYLE_2
 40
3.5
  1
n
 50
90.0
 41
1.0
 72
1
 11
-47.875
 21
-2.625
100
AcDbText
  0
TEXT
  5
22D
100
AcDbEntity
  8
_03_2D_ZEICHNUNG_BEMASSUNGEN
100
AcDbText
 62
2
  6
CONTINUOUS
 10
-47.875
 20
-0.2916666667
  7
STANDARD
 40
3.5
  1
34
 50
90.0
 41
0.75
 72
1
 11
-47.875
 21
2.3333333333
100
AcDbText
  0
LINE
  5
22E
100
AcDbEntity
  8
_03_2D_ZEICHNUNG_BEMASSUNGEN
100
AcDbLine
 62
7
  6
CONTINUOUS
 10
-38.0
 20
17.0
 11
-48.5
 21
17.0
  0
LINE
  5
22F
100
AcDbEntity
  8
_03_2D_ZEICHNUNG_BEMASSUNGEN
100
AcDbLine
 62
7
  6
CONTINUOUS
 10
-38.0
 20
-17.0
 11
-48.5
 21
-17.0
  0
LINE
  5
230
100
AcDbEntity
  8
_03_2D_ZEICHNUNG_BEMASSUNGEN
100
AcDbLine
 62
7
  6
CONTINUOUS
 10
-47.0
 20
17.0
 11
-47.0
 21
0.0
  0
LINE
  5
231
100
AcDbEntity
  8
_03_2D_ZEICHNUNG_BEMASSUNGEN
100
AcDbLine
 62
7
  6
CONTINUOUS
 10
-47.0
 20
-17.0
 11
-47.0
 21
0.0
  0
INSERT
  5
232
100
AcDbEntity
  8
_03_2D_ZEICHNUNG_BEMASSUNGEN
100
AcDbBlockReference
 62
7
  6
CONTINUOUS
  2
_FILLED
 10
-47.0
 20
17.0
 41
3.5
 42
3.5
 43
3.5
 50
90.0
  0
INSERT
  5
233
100
AcDbEntity
  8
_03_2D_ZEICHNUNG_BEMASSUNGEN
100
AcDbBlockReference
 62
7
  6
CONTINUOUS
  2
_FILLED
 10
-47.0
 20
-17.0
 41
3.5
 42
3.5
 43
3.5
 50
270.0
  0
ENDBLK
  5
234
100
AcDbEntity
  8
0
  6
BYBLOCK
 62
0
100
AcDbBlockEnd
  0
BLOCK
  5
235
100
AcDbEntity
  8
_03_2D_ZEICHNUNG_BEMASSUNGEN
100
AcDbBlockBegin
 62
7
  6
CONTINUOUS
  2
*D2
 70
65
 10
0.0
 20
0.0
  3
*D2
  1

  0
TEXT
  5
236
100
AcDbEntity
  8
_03_2D_ZEICHNUNG_BEMASSUNGEN
100
AcDbText
 62
2
  6
CONTINUOUS
 10
163.1916803527
 20
-4.9583333333
  7
TEXTSTYLE_2
 40
3.5
  1
n
 50
90.0
 41
1.0
 72
1
 11
163.1916803527
 21
-2.625
100
AcDbText
  0
TEXT
  5
237
100
AcDbEntity
  8
_03_2D_ZEICHNUNG_BEMASSUNGEN
100
AcDbText
 62
2
  6
CONTINUOUS
 10
163.1916803527
 20
-0.2916666667
  7
STANDARD
 40
3.5
  1
50
 50
90.0
 41
0.75
 72
1
 11
163.1916803527
 21
2.3333333333
100
AcDbText
  0
LINE
  5
238
100
AcDbEntity
  8
_03_2D_ZEICHNUNG_BEMASSUNGEN
100
AcDbLine
 62
7
  6
CONTINUOUS
 10
155.0
 20
-25.0
 11
165.5666803527
 21
-25.0
  0
LINE
  5
239
100
AcDbEntity
  8
_03_2D_ZEICHNUNG_BEMASSUNGEN
100
AcDbLine
 62
7
  6
CONTINUOUS
 10
155.0
 20
25.0
 11
165.5666803527
 21
25.0
  0
LINE
  5
23A
100
AcDbEntity
  8
_03_2D_ZEICHNUNG_BEMASSUNGEN
100
AcDbLine
 62
7
  6
CONTINUOUS
 10
164.0666803527
 20
-25.0
 11
164.0666803527
 21
-31.0
  0
LINE
  5
23B
100
AcDbEntity
  8
_03_2D_ZEICHNUNG_BEMASSUNGEN
100
AcDbLine
 62
7
  6
CONTINUOUS
 10
164.0666803527
 20
-31.0
 11
164.0666803527
 21
-0.0
  0
LINE
  5
23C
100
AcDbEntity
  8
_03_2D_ZEICHNUNG_BEMASSUNGEN
100
AcDbLine
 62
7
  6
CONTINUOUS
 10
164.0666803527
 20
25.0
 11
164.0666803527
 21
31.0
  0
LINE
  5
23D
100
AcDbEntity
  8
_03_2D_ZEICHNUNG_BEMASSUNGEN
100
AcDbLine
 62
7
  6
CONTINUOUS
 10
164.0666803527
 20
31.0
 11
164.0666803527
 21
-0.0
  0
INSERT
  5
23E
100
AcDbEntity
  8
_03_2D_ZEICHNUNG_BEMASSUNGEN
100
AcDbBlockReference
 62
7
  6
CONTINUOUS
  2
_FILLED
 10
164.0666803527
 20
-25.0
 41
3.5
 42
3.5
 43
3.5
 50
90.0
  0
INSERT
  5
23F
100
AcDbEntity
  8
_03_2D_ZEICHNUNG_BEMASSUNGEN
100
AcDbBlockReference
 62
7
  6
CONTINUOUS
  2
_FILLED
 10
164.0666803527
 20
25.0
 41
3.5
 42
3.5
 43
3.5
 50
270.0
  0
ENDBLK
  5
240
100
AcDbEntity
  8
0
  6
BYBLOCK
 62
0
100
AcDbBlockEnd
  0
BLOCK
  5
241
100
AcDbEntity
  8
_03_2D_ZEICHNUNG_BEMASSUNGEN
100
AcDbBlockBegin
 62
7
  6
CONTINUOUS
  2
*D3
 70
65
 10
0.0
 20
0.0
  3
*D3
  1

  0
TEXT
  5
242
100
AcDbEntity
  8
_03_2D_ZEICHNUNG_BEMASSUNGEN
100
AcDbText
 62
2
  6
CONTINUOUS
 10
101.25
 20
46.375
  7
STANDARD
 40
3.5
  1
100
 41
0.7142857143
 72
1
 11
105.0
 21
46.375
100
AcDbText
  0
LINE
  5
243
100
AcDbEntity
  8
_03_2D_ZEICHNUNG_BEMASSUNGEN
100
AcDbLine
 62
7
  6
CONTINUOUS
 10
155.0
 20
25.0
 11
155.0
 21
47.0
  0
LINE
  5
244
100
AcDbEntity
  8
_03_2D_ZEICHNUNG_BEMASSUNGEN
100
AcDbLine
 62
7
  6
CONTINUOUS
 10
55.0
 20
-25.0
 11
55.0
 21
47.0
  0
LINE
  5
245
100
AcDbEntity
  8
_03_2D_ZEICHNUNG_BEMASSUNGEN
100
AcDbLine
 62
7
  6
CONTINUOUS
 10
155.0
 20
45.5
 11
105.0
 21
45.5
  0
LINE
  5
246
100
AcDbEntity
  8
_03_2D_ZEICHNUNG_BEMASSUNGEN
100
AcDbLine
 62
7
  6
CONTINUOUS
 10
55.0
 20
45.5
 11
105.0
 21
45.5
  0
INSERT
  5
247
100
AcDbEntity
  8
_03_2D_ZEICHNUNG_BEMASSUNGEN
100
AcDbBlockReference
 62
7
  6
CONTINUOUS
  2
_FILLED
 10
155.0
 20
45.5
 41
3.5
 42
3.5
 43
3.5
  0
INSERT
  5
248
100
AcDbEntity
  8
_03_2D_ZEICHNUNG_BEMASSUNGEN
100
AcDbBlockReference
 62
7
  6
CONTINUOUS
  2
_FILLED
 10
55.0
 20
45.5
 41
3.5
 42
3.5
 43
3.5
 50
180.0
  0
ENDBLK
  5
249
100
AcDbEntity
  8
0
  6
BYBLOCK
 62
0
100
AcDbBlockEnd
  0
BLOCK
  5
24A
100
AcDbEntity
  8
_03_2D_ZEICHNUNG_BEMASSUNGEN
100
AcDbBlockBegin
 62
7
  6
CONTINUOUS
  2
*D4
 70
65
 10
0.0
 20
0.0
  3
*D4
  1

  0
TEXT
  5
24B
100
AcDbEntity
  8
_03_2D_ZEICHNUNG_BEMASSUNGEN
100
AcDbText
 62
2
  6
CONTINUOUS
 10
-56.875
 20
-8.25
  7
STANDARD
 40
3.5
  1
ABS 
 50
90.0
 41
0.8035714286
 72
1
 11
-56.875
 21
-2.625
100
AcDbText
  0
TEXT
  5
24C
100
AcDbEntity
  8
_03_2D_ZEICHNUNG_BEMASSUNGEN
100
AcDbText
 62
2
  6
CONTINUOUS
 10
-56.875
 20
3.0
  7
STANDARD
 40
3.5
  1
63
 50
90.0
 41
0.75
 72
1
 11
-56.875
 21
5.625
100
AcDbText
  0
LINE
  5
24D
100
AcDbEntity
  8
_03_2D_ZEICHNUNG_BEMASSUNGEN
100
AcDbLine
 62
7
  6
CONTINUOUS
 10
-0.0
 20
31.5
 11
-57.5
 21
31.5
  0
LINE
  5
24E
100
AcDbEntity
  8
_03_2D_ZEICHNUNG_BEMASSUNGEN
100
AcDbLine
 62
7
  6
CONTINUOUS
 10
-0.0
 20
-31.5
 11
-57.5
 21
-31.5
  0
LINE
  5
24F
100
AcDbEntity
  8
_03_2D_ZEICHNUNG_BEMASSUNGEN
100
AcDbLine
 62
7
  6
CONTINUOUS
 10
-56.0
 20
31.5
 11
-56.0
 21
0.0
  0
LINE
  5
250
100
AcDbEntity
  8
_03_2D_ZEICHNUNG_BEMASSUNGEN
100
AcDbLine
 62
7
  6
CONTINUOUS
 10
-56.0
 20
-31.5
 11
-56.0
 21
0.0
  0
INSERT
  5
251
100
AcDbEntity
  8
_03_2D_ZEICHNUNG_BEMASSUNGEN
100
AcDbBlockReference
 62
7
  6
CONTINUOUS
  2
_FILLED
 10
-56.0
 20
31.5
 41
3.5
 42
3.5
 43
3.5
 50
90.0
  0
INSERT
  5
252
100
AcDbEntity
  8
_03_2D_ZEICHNUNG_BEMASSUNGEN
100
AcDbBlockReference
 62
7
  6
CONTINUOUS
  2
_FILLED
 10
-56.0
 20
-31.5
 41
3.5
 42
3.5
 43
3.5
 50
270.0
  0
ENDBLK
  5
253
100
AcDbEntity
  8
0
  6
BYBLOCK
 62
0
100
AcDbBlockEnd
  0
BLOCK
  5
254
100
AcDbEntity
  8
_03_2D_ZEICHNUNG_BEMASSUNGEN
100
AcDbBlockBegin
 62
7
  6
CONTINUOUS
  2
*D5
 70
65
 10
0.0
 20
0.0
  3
*D5
  1

  0
TEXT
  5
255
100
AcDbEntity
  8
_03_2D_ZEICHNUNG_BEMASSUNGEN
100
AcDbText
 62
2
  6
CONTINUOUS
 10
74.0002972342
 20
55.375
  7
STANDARD
 40
3.5
  1
155
 41
0.6666666667
 72
1
 11
77.5002972342
 21
55.375
100
AcDbText
  0
LINE
  5
256
100
AcDbEntity
  8
_03_2D_ZEICHNUNG_BEMASSUNGEN
100
AcDbLine
 62
7
  6
CONTINUOUS
 10
-0.0
 20
31.5
 11
-0.0
 21
56.0
  0
LINE
  5
257
100
AcDbEntity
  8
_03_2D_ZEICHNUNG_BEMASSUNGEN
100
AcDbLine
 62
7
  6
CONTINUOUS
 10
155.0005944685
 20
-0.0937889569
 11
155.0005944685
 21
56.0
  0
LINE
  5
258
100
AcDbEntity
  8
_03_2D_ZEICHNUNG_BEMASSUNGEN
100
AcDbLine
 62
7
  6
CONTINUOUS
 10
-0.0
 20
54.5
 11
77.5002972342
 21
54.5
  0
LINE
  5
259
100
AcDbEntity
  8
_03_2D_ZEICHNUNG_BEMASSUNGEN
100
AcDbLine
 62
7
  6
CONTINUOUS
 10
155.0005944685
 20
54.5
 11
77.5002972342
 21
54.5
  0
INSERT
  5
25A
100
AcDbEntity
  8
_03_2D_ZEICHNUNG_BEMASSUNGEN
100
AcDbBlockReference
 62
7
  6
CONTINUOUS
  2
_FILLED
 10
-0.0
 20
54.5
 41
3.5
 42
3.5
 43
3.5
 50
180.0
  0
INSERT
  5
25B
100
AcDbEntity
  8
_03_2D_ZEICHNUNG_BEMASSUNGEN
100
AcDbBlockReference
 62
7
  6
CONTINUOUS
  2
_FILLED
 10
155.0005944685
 20
54.5
 41
3.5
 42
3.5
 43
3.5
  0
ENDBLK
  5
25C
100
AcDbEntity
  8
0
  6
BYBLOCK
 62
0
100
AcDbBlockEnd
  0
ENDSEC
  0
SECTION
  2
ENTITIES
  0
DIMENSION
  5
25D
100
AcDbEntity
  8
_03_2D_ZEICHNUNG_BEMASSUNGEN
100
AcDbDimension
 62
7
  6
CONTINUOUS
  2
*D0
 10
155.0
 20
63.5
 11
57.9999998474
 21
63.5
 70
160
 71
2
 72
2
 41
0.9
 42
193.0
  3
DIMSTYLE_1
100
AcDbAlignedDimension
 13
-38.0
 23
37.1619974945
 14
155.0
 24
37.1619974945
100
AcDbRotatedDimension
  0
DIMENSION
  5
25E
100
AcDbEntity
  8
_03_2D_ZEICHNUNG_BEMASSUNGEN
100
AcDbDimension
 62
7
  6
CONTINUOUS
  2
*D1
 10
-47.0
 20
-17.0
 11
-47.0
 21
0.0
 70
160
 71
2
 72
2
 41
0.9
 42
34.0
  1
%%c<>
  3
DIMSTYLE_2
100
AcDbAlignedDimension
 13
-38.0
 23
17.0
 14
-38.0
 24
-17.0
 50
270.0
100
AcDbRotatedDimension
  0
DIMENSION
  5
25F
100
AcDbEntity
  8
_03_2D_ZEICHNUNG_BEMASSUNGEN
100
AcDbDimension
 62
7
  6
CONTINUOUS
  2
*D2
 10
164.0666803527
 20
25.0
 11
164.0666803527
 21
-0.0
 70
160
 71
2
 72
2
 41
0.9
 42
50.0
  1
%%c<>
  3
DIMSTYLE_2
100
AcDbAlignedDimension
 13
155.0
 23
-25.0
 14
155.0
 24
25.0
 50
90.0
100
AcDbRotatedDimension
  0
DIMENSION
  5
260
100
AcDbEntity
  8
_03_2D_ZEICHNUNG_BEMASSUNGEN
100
AcDbDimension
 62
7
  6
CONTINUOUS
  2
*D3
 10
55.0
 20
45.5
 11
104.4999971008
 21
45.5
 70
160
 71
2
 72
2
 41
0.9
 42
100.0
  3
DIMSTYLE_2
100
AcDbAlignedDimension
 13
155.0
 23
25.0
 14
55.0
 24
-25.0
 50
180.0
100
AcDbRotatedDimension
  0
DIMENSION
  5
261
100
AcDbEntity
  8
_03_2D_ZEICHNUNG_BEMASSUNGEN
100
AcDbDimension
 62
7
  6
CONTINUOUS
  2
*D4
 10
-56.0
 20
-31.5
 11
-56.0
 21
0.0
 70
160
 71
2
 72
2
 41
0.9
 42
63.0
  1
ABS <>
  3
DIMSTYLE_2
100
AcDbAlignedDimension
 13
-0.0
 23
31.5
 14
-0.0
 24
-31.5
 50
270.0
100
AcDbRotatedDimension
  0
DIMENSION
  5
262
100
AcDbEntity
  8
_03_2D_ZEICHNUNG_BEMASSUNGEN
100
AcDbDimension
 62
7
  6
CONTINUOUS
  2
*D5
 10
155.0005944685
 20
54.5
 11
77.0002958679
 21
54.5
 70
160
 71
2
 72
2
 41
0.9
 42
155.0005944685
  3
DIMSTYLE_1
100
AcDbAlignedDimension
 13
-0.0
 23
31.5
 14
155.0005944685
 24
-0.0937889569
100
AcDbRotatedDimension
  0
LINE
  5
263
100
AcDbEntity
  8
_30_VOLUMEN
100
AcDbLine
 62
4
  6
CONTINUOUS
 10
-38.0
 20
-17.0
 11
-38.0
 21
17.0
  0
LINE
  5
264
100
AcDbEntity
  8
NOCUT
100
AcDbLine
 62
7
  6
CONTINUOUS
 10
-38.0
 20
0.0
 11
-38.0
 21
17.0
  0
LINE
  5
265
100
AcDbEntity
  8
_30_VOLUMEN
100
AcDbLine
 62
4
  6
CONTINUOUS
 10
-0.0
 20
-31.5
 11
-0.0
 21
31.5
  0
LINE
  5
266
100
AcDbEntity
  8
NOCUT
100
AcDbLine
 62
7
  6
CONTINUOUS
 10
-0.0
 20
17.0
 11
-0.0
 21
31.5
  0
LINE
  5
267
100
AcDbEntity
  8
_30_VOLUMEN
100
AcDbLine
 62
4
  6
CONTINUOUS
 10
15.0
 20
-31.5
 11
15.0
 21
31.4993650699
  0
LINE
  5
268
100
AcDbEntity
  8
_30_VOLUMEN
100
AcDbLine
 62
4
  6
CONTINUOUS
 10
15.0
 20
-31.5
 11
-0.0
 21
-31.5
  0
LINE
  5
269
100
AcDbEntity
  8
_30_VOLUMEN
100
AcDbLine
 62
4
  6
CONTINUOUS
 10
42.0
 20
-24.5
 11
152.5406682357
 21
-24.5
  0
LINE
  5
26A
100
AcDbEntity
  8
_30_VOLUMEN
100
AcDbLine
 62
7
  6
CONTINUOUS
 10
41.4935526807
 20
-24.5651844758
 11
41.4935526807
 21
6.8146109984
  0
LINE
  5
26B
100
AcDbEntity
  8
_30_VOLUMEN
100
AcDbLine
 62
7
  6
CONTINUOUS
 10
42.0
 20
6.6514479439
 11
42.0
 21
-24.5
  0
LINE
  5
26C
100
AcDbEntity
  8
_30_VOLUMEN
100
AcDbLine
 62
4
  6
CONTINUOUS
 10
15.0
 20
-31.5
 11
41.4935526807
 21
-24.5651844758
  0
LINE
  5
26D
100
AcDbEntity
  8
_30_VOLUMEN
100
AcDbLine
 62
4
  6
CONTINUOUS
 10
-0.0
 20
-17.0
 11
-38.0
 21
-17.0
  0
LINE
  5
26E
100
AcDbEntity
  8
_30_VOLUMEN
100
AcDbLine
 62
4
  6
CONTINUOUS
 10
152.2880367532
 20
-19.7069103847
 11
152.7904834108
 21
-19.7332424982
  0
LINE
  5
26F
100
AcDbEntity
  8
_30_VOLUMEN
100
AcDbLine
 62
4
  6
CONTINUOUS
 10
152.7032779823
 20
-11.7777758281
 11
153.2060309034
 21
-11.8041239923
  0
LINE
  5
270
100
AcDbEntity
  8
_30_VOLUMEN
100
AcDbLine
 62
7
  6
CONTINUOUS
 10
55.0
 20
4.85
 11
55.0
 21
4.65
  0
LINE
  5
271
100
AcDbEntity
  8
_26_BEZUGSACHSEN
100
AcDbLine
 62
4
  6
CONTINUOUS
 10
147.5857482938
 20
4.85
 11
146.6127976947
 21
4.7648778524
  0
LINE
  5
272
100
AcDbEntity
  8
_30_VOLUMEN
100
AcDbLine
 62
4
  6
CONTINUOUS
 10
147.4019975346
 20
4.8339238916
 11
153.8886777462
 21
5.4014348741
  0
LINE
  5
273
100
AcDbEntity
  8
K_CUT
100
AcDbLine
 62
5
  6
CONTINUOUS
 10
147.4019975346
 20
4.8339238916
 11
153.7333837578
 21
5.3878484106
  0
LINE
  5
274
100
AcDbEntity
  8
_26_BEZUGSACHSEN
100
AcDbLine
 62
7
  6
CENTER
 10
-41.0
 20
0.0
 11
158.0736649378
 21
-0.0
  0
LINE
  5
275
100
AcDbEntity
  8
_30_VOLUMEN
100
AcDbLine
 62
4
  6
CONTINUOUS
 10
153.7949419133
 20
0.7
 11
150.8450079573
 21
0.7
  0
LINE
  5
276
100
AcDbEntity
  8
_30_VOLUMEN
100
AcDbLine
 62
4
  6
CONTINUOUS
 10
152.7038143346
 20
-11.7734015217
 11
150.1795418145
 21
-11.5924912589
  0
LINE
  5
277
100
AcDbEntity
  8
K_CUT
100
AcDbLine
 62
5
  6
CONTINUOUS
 10
153.0413671604
 20
13.2976343134
 11
146.7099809371
 21
12.7437097945
  0
LINE
  5
278
100
AcDbEntity
  8
_30_VOLUMEN
100
AcDbLine
 62
4
  6
CONTINUOUS
 10
145.9207810973
 20
12.6746637553
 11
153.1966611488
 21
13.3112207769
  0
LINE
  5
279
100
AcDbEntity
  8
_30_VOLUMEN
100
AcDbLine
 62
4
  6
CONTINUOUS
 10
55.0
 20
4.65
 11
153.9262042435
 21
4.65
  0
LINE
  5
27A
100
AcDbEntity
  8
_30_VOLUMEN
100
AcDbLine
 62
7
  6
CONTINUOUS
 10
153.9369220464
 20
4.85
 11
147.5857482938
 21
4.85
  0
LINE
  5
27B
100
AcDbEntity
  8
_26_BEZUGSACHSEN
100
AcDbLine
 62
7
  6
CONTINUOUS
 10
146.6053504718
 20
4.85
 11
55.0
 21
4.85
  0
LINE
  5
27C
100
AcDbEntity
  8
_30_VOLUMEN
100
AcDbLine
 62
4
  6
CONTINUOUS
 10
153.1062675102
 20
-7.1715844463
 11
153.6074891134
 21
-7.2154356545
  0
LINE
  5
27D
100
AcDbEntity
  8
_30_VOLUMEN
100
AcDbLine
 62
4
  6
CONTINUOUS
 10
152.8669515792
 20
17.0798184016
 11
145.5452903191
 21
16.6961063943
  0
LINE
  5
27E
100
AcDbEntity
  8
K_CUT
100
AcDbLine
 62
5
  6
CONTINUOUS
 10
146.3364190718
 20
16.7375676953
 11
152.6832800725
 21
17.0701925858
  0
LINE
  5
27F
100
AcDbEntity
  8
CUT
100
AcDbLine
 62
1
  6
CONTINUOUS
 10
146.3364190718
 20
16.7375676953
 11
152.6832800725
 21
17.0701925858
  0
LINE
  5
280
100
AcDbEntity
  8
_30_VOLUMEN
100
AcDbLine
 62
4
  6
CONTINUOUS
 10
153.7915481601
 20
0.7387907756
 11
154.3005019144
 21
0.6942630919
  0
LINE
  5
281
100
AcDbEntity
  8
_30_VOLUMEN
100
AcDbLine
 62
4
  6
CONTINUOUS
 10
152.2677325799
 20
24.9993110917
 11
145.9208715792
 21
24.6666862013
  0
LINE
  5
282
100
AcDbEntity
  8
K_CUT
100
AcDbLine
 62
5
  6
CONTINUOUS
 10
152.2677325799
 20
24.9993110917
 11
145.9208715792
 21
24.6666862013
  0
LINE
  5
283
100
AcDbEntity
  8
CUT
100
AcDbLine
 62
1
  6
CONTINUOUS
 10
152.2677325799
 20
24.9993110917
 11
145.9208715792
 21
24.6666862013
  0
LINE
  5
284
100
AcDbEntity
  8
NOCUT
100
AcDbLine
 62
7
  6
CONTINUOUS
 10
-38.0
 20
17.0
 11
-0.0
 21
17.0
  0
LINE
  5
285
100
AcDbEntity
  8
_30_VOLUMEN
100
AcDbLine
 62
4
  6
CONTINUOUS
 10
0.0
 20
17.0
 11
-38.0
 21
17.0
  0
LINE
  5
286
100
AcDbEntity
  8
_30_VOLUMEN
100
AcDbLine
 62
4
  6
CONTINUOUS
 10
15.0
 20
31.5
 11
41.4935526807
 21
24.5651844758
  0
LINE
  5
287
100
AcDbEntity
  8
NOCUT
100
AcDbLine
 62
7
  6
CONTINUOUS
 10
41.4935526807
 20
24.5651844758
 11
15.0
 21
31.5
  0
LINE
  5
288
100
AcDbEntity
  8
_30_VOLUMEN
100
AcDbLine
 62
4
  6
CONTINUOUS
 10
145.1500872843
 20
24.237029521
 11
145.2562587896
 21
24.237029521
  0
LINE
  5
289
100
AcDbEntity
  8
NOCUT
100
AcDbLine
 62
7
  6
CONTINUOUS
 10
153.2160094076
 20
24.5
 11
42.0
 21
24.5
  0
LINE
  5
28A
100
AcDbEntity
  8
_26_BEZUGSACHSEN
100
AcDbLine
 62
4
  6
CONTINUOUS
 10
42.0
 20
24.5
 11
145.1363055855
 21
24.5
  0
LINE
  5
28B
100
AcDbEntity
  8
_30_VOLUMEN
100
AcDbLine
 62
4
  6
CONTINUOUS
 10
15.0
 20
31.5
 11
-0.0
 21
31.5
  0
LINE
  5
28C
100
AcDbEntity
  8
NOCUT
100
AcDbLine
 62
7
  6
CONTINUOUS
 10
15.0
 20
31.5
 11
-0.0
 21
31.5
  0
LINE
  5
28D
100
AcDbEntity
  8
_30_VOLUMEN
100
AcDbLine
 62
7
  6
CONTINUOUS
 10
153.7563598546
 20
0.2590050514
 11
154.2774805129
 21
0.6962772035
  0
LINE
  5
28E
100
AcDbEntity
  8
_30_VOLUMEN
100
AcDbLine
 62
7
  6
CONTINUOUS
 10
154.4525615021
 20
-0.6193390705
 11
154.9976343134
 21
-0.1619686755
  0
LINE
  5
28F
100
AcDbEntity
  8
_30_VOLUMEN
100
AcDbLine
 62
7
  6
CONTINUOUS
 10
152.3117487106
 20
-19.2544592844
 11
152.7404878535
 21
-19.7306223421
  0
LINE
  5
290
100
AcDbEntity
  8
_30_VOLUMEN
100
AcDbLine
 62
7
  6
CONTINUOUS
 10
153.0969633632
 20
-18.4521761194
 11
153.5730779072
 21
-18.9809548905
  0
LINE
  5
291
100
AcDbEntity
  8
_30_VOLUMEN
100
AcDbLine
 62
7
  6
CONTINUOUS
 10
153.1481917633
 20
-6.6923880411
 11
153.5854639154
 21
-7.2135086993
  0
LINE
  5
292
100
AcDbEntity
  8
_30_VOLUMEN
100
AcDbLine
 62
7
  6
CONTINUOUS
 10
153.9863393995
 20
-5.9482820874
 11
154.4437097945
 21
-6.4933548988
  0
LINE
  5
293
100
AcDbEntity
  8
_30_VOLUMEN
100
AcDbLine
 62
7
  6
CONTINUOUS
 10
152.6798722884
 20
-12.2302429791
 11
153.1560353461
 21
-11.8015038361
  0
LINE
  5
294
100
AcDbEntity
  8
_30_VOLUMEN
100
AcDbLine
 62
7
  6
CONTINUOUS
 10
153.3769240266
 20
-13.1102084338
 11
153.9057027977
 21
-12.6340938898
  0
LINE
  5
295
100
AcDbEntity
  8
_30_VOLUMEN
100
AcDbLine
 62
4
  6
CONTINUOUS
 10
145.9898271366
 20
11.8854639154
 11
146.5437516555
 21
5.5540776922
  0
LINE
  5
296
100
AcDbEntity
  8
K_CUT
100
AcDbLine
 62
5
  6
CONTINUOUS
 10
145.9898271366
 20
11.8854639154
 11
146.5437516555
 21
5.5540776922
  0
LINE
  5
297
100
AcDbEntity
  8
_26_BEZUGSACHSEN
100
AcDbLine
 62
4
  6
CONTINUOUS
 10
146.6127976947
 20
4.7648778524
 11
145.9207810973
 21
12.6746637553
  0
LINE
  5
298
100
AcDbEntity
  8
_30_VOLUMEN
100
AcDbLine
 62
4
  6
CONTINUOUS
 10
145.1712041276
 20
23.8340961476
 11
145.5038290181
 21
17.4872351469
  0
LINE
  5
299
100
AcDbEntity
  8
K_CUT
100
AcDbLine
 62
5
  6
CONTINUOUS
 10
145.1712041276
 20
23.8340961476
 11
145.5038290181
 21
17.4872351469
  0
LINE
  5
29A
100
AcDbEntity
  8
CUT
100
AcDbLine
 62
1
  6
CONTINUOUS
 10
145.1712041276
 20
23.8340961476
 11
145.5038290181
 21
17.4872351469
  0
LINE
  5
29B
100
AcDbEntity
  8
_26_BEZUGSACHSEN
100
AcDbLine
 62
4
  6
CONTINUOUS
 10
145.5452903191
 20
16.6961063943
 11
145.1363055855
 21
24.5
  0
LINE
  5
29C
100
AcDbEntity
  8
_30_VOLUMEN
100
AcDbLine
 62
4
  6
CONTINUOUS
 10
153.7915481601
 20
0.7387907756
 11
153.7949419133
 21
0.7
  0
LINE
  5
29D
100
AcDbEntity
  8
_30_VOLUMEN
100
AcDbLine
 62
4
  6
CONTINUOUS
 10
154.3005019144
 20
0.6942630919
 11
153.8886777462
 21
5.4014348741
  0
LINE
  5
29E
100
AcDbEntity
  8
_30_VOLUMEN
100
AcDbLine
 62
4
  6
CONTINUOUS
 10
153.1966611488
 20
13.3112207769
 11
152.8669515792
 21
17.0798184016
  0
LINE
  5
29F
100
AcDbEntity
  8
_30_VOLUMEN
100
AcDbLine
 62
4
  6
CONTINUOUS
 10
154.4535375583
 20
6.2460942896
 11
153.8996130394
 21
12.5774805129
  0
LINE
  5
2A0
100
AcDbEntity
  8
K_CUT
100
AcDbLine
 62
5
  6
CONTINUOUS
 10
154.4535375583
 20
6.2460942896
 11
153.8996130394
 21
12.5774805129
  0
LINE
  5
2A1
100
AcDbEntity
  8
_30_VOLUMEN
100
AcDbLine
 62
4
  6
CONTINUOUS
 10
153.432947524
 20
17.9027826395
 11
153.1003226336
 21
24.2496436402
  0
LINE
  5
2A2
100
AcDbEntity
  8
K_CUT
100
AcDbLine
 62
5
  6
CONTINUOUS
 10
153.432947524
 20
17.9027826395
 11
153.1003226336
 21
24.2496436402
  0
LINE
  5
2A3
100
AcDbEntity
  8
CUT
100
AcDbLine
 62
1
  6
CONTINUOUS
 10
153.432947524
 20
17.9027826395
 11
153.1003226336
 21
24.2496436402
  0
LINE
  5
2A4
100
AcDbEntity
  8
NOCUT
100
AcDbLine
 62
7
  6
CONTINUOUS
 10
153.2160094076
 20
24.5
 11
154.5
 21
-0.0
  0
LINE
  5
2A5
100
AcDbEntity
  8
_30_VOLUMEN
100
AcDbLine
 62
4
  6
CONTINUOUS
 10
152.2880367532
 20
-19.7069103847
 11
152.7035842458
 21
-11.7777918787
  0
LINE
  5
2A6
100
AcDbEntity
  8
_30_VOLUMEN
100
AcDbLine
 62
4
  6
CONTINUOUS
 10
152.7904834108
 20
-19.7332424982
 11
152.5406682357
 21
-24.5
  0
LINE
  5
2A7
100
AcDbEntity
  8
_30_VOLUMEN
100
AcDbLine
 62
4
  6
CONTINUOUS
 10
153.3769240266
 20
-13.1102084338
 11
153.0969633632
 21
-18.4521761194
  0
LINE
  5
2A8
100
AcDbEntity
  8
_30_VOLUMEN
100
AcDbLine
 62
4
  6
CONTINUOUS
 10
153.9057027977
 20
-12.6340938898
 11
153.5730779072
 21
-18.9809548905
  0
LINE
  5
2A9
100
AcDbEntity
  8
K_CUT
100
AcDbLine
 62
5
  6
CONTINUOUS
 10
153.9057027977
 20
-12.6340938898
 11
153.5730779072
 21
-18.9809548905
  0
LINE
  5
2AA
100
AcDbEntity
  8
_30_VOLUMEN
100
AcDbLine
 62
4
  6
CONTINUOUS
 10
153.7949419133
 20
0.7
 11
153.1062675102
 21
-7.1715844463
  0
LINE
  5
2AB
100
AcDbEntity
  8
_30_VOLUMEN
100
AcDbLine
 62
4
  6
CONTINUOUS
 10
153.6074891134
 20
-7.2154356545
 11
153.2060309034
 21
-11.8041239923
  0
LINE
  5
2AC
100
AcDbEntity
  8
_30_VOLUMEN
100
AcDbLine
 62
4
  6
CONTINUOUS
 10
154.4525615021
 20
-0.6193390705
 11
153.9863393995
 21
-5.9482820874
  0
LINE
  5
2AD
100
AcDbEntity
  8
_30_VOLUMEN
100
AcDbLine
 62
4
  6
CONTINUOUS
 10
154.9976343134
 20
-0.1619686755
 11
154.4437097945
 21
-6.4933548988
  0
LINE
  5
2AE
100
AcDbEntity
  8
K_CUT
100
AcDbLine
 62
5
  6
CONTINUOUS
 10
154.9976343134
 20
-0.1619686755
 11
154.4437097945
 21
-6.4933548988
  0
LINE
  5
2AF
100
AcDbEntity
  8
CUT
100
AcDbLine
 62
1
  6
CONTINUOUS
 10
154.9976343134
 20
-0.1619686755
 11
154.4437097945
 21
-6.4933548988
  0
ARC
  5
2B0
100
AcDbEntity
  8
_30_VOLUMEN
100
AcDbCircle
 62
4
  6
CONTINUOUS
 10
55.0
 20
47.8701582868
 40
43.2201582868
100
AcDbArc
 50
202.2580444659
 51
270.0
  0
ARC
  5
2B1
100
AcDbEntity
  8
_30_VOLUMEN
100
AcDbCircle
 62
7
  6
CONTINUOUS
 10
55.0
 20
47.8701582868
 40
43.0201582865
100
AcDbArc
 50
202.4574684375
 51
270.0
  0
CIRCLE
  5
2B2
100
AcDbEntity
  8
_30_VOLUMEN
100
AcDbCircle
 62
4
  6
CONTINUOUS
 10
149.3020758258
 20
20.8684393935
 40
2.125
  0
CIRCLE
  5
2B3
100
AcDbEntity
  8
_30_VOLUMEN
100
AcDbCircle
 62
4
  6
CONTINUOUS
 10
150.2216823475
 20
9.0657791025
 40
2.125
  0
ARC
  5
2B4
100
AcDbEntity
  8
_30_VOLUMEN
100
AcDbCircle
 62
4
  6
CONTINUOUS
 10
42.0
 20
26.5
 40
2.0
100
AcDbArc
 50
255.331645897
 51
270.0000000001
  0
ARC
  5
2B5
100
AcDbEntity
  8
_30_VOLUMEN
100
AcDbCircle
 62
4
  6
CONTINUOUS
 10
42.0
 20
-26.5
 40
2.0
100
AcDbArc
 50
89.9999999999
 51
104.668354103
  0
ARC
  5
2B6
100
AcDbEntity
  8
NOCUT
100
AcDbCircle
 62
7
  6
CONTINUOUS
 10
42.0
 20
26.5
 40
2.0
100
AcDbArc
 50
255.331645897
 51
270.0
  0
CIRCLE
  5
2B7
100
AcDbEntity
  8
_30_VOLUMEN
100
AcDbCircle
 62
7
  6
CONTINUOUS
 10
149.3020758258
 20
20.8684393935
 40
1.9785533906
  0
CIRCLE
  5
2B8
100
AcDbEntity
  8
_30_VOLUMEN
100
AcDbCircle
 62
7
  6
CONTINUOUS
 10
150.2216823475
 20
9.0657791025
 40
1.9785533906
  0
CIRCLE
  5
2B9
100
AcDbEntity
  8
_30_VOLUMEN
100
AcDbCircle
 62
4
  6
CONTINUOUS
 10
149.3020758258
 20
20.8684393935
 40
1.425
  0
CIRCLE
  5
2BA
100
AcDbEntity
  8
_30_VOLUMEN
100
AcDbCircle
 62
4
  6
CONTINUOUS
 10
150.2216823475
 20
9.0657791025
 40
1.425
  0
SPLINE
  5
2BB
100
AcDbEntity
  8
_30_VOLUMEN
100
AcDbSpline
 62
4
  6
CONTINUOUS
 70
0
 71
3
 72
16
 73
12
 74
0
 42
0.0000001
 43
0.0000001
 44
0.0000000001
 40
0.0
 40
0.0
 40
0.0
 40
0.0
 40
0.0056875792
 40
0.0231794213
 40
0.0519888707
 40
0.091345749
 40
0.1968992147
 40
0.3304070331
 40
0.4832746091
 40
0.6491150385
 40
1.0
 40
1.0
 40
1.0
 40
1.0
 10
15.0
 20
31.4993543033
 30
0.0
 10
14.9998202169
 20
31.4997935757
 30
0.0
 10
15.0033357351
 20
31.498223086
 30
0.0
 10
15.0059752375
 20
31.4983463878
 30
0.0
 10
15.0137945291
 20
31.4959865577
 30
0.0
 10
15.0273377906
 20
31.4927826247
 30
0.0
 10
15.0501847694
 20
31.4867254204
 30
0.0
 10
15.0816898044
 20
31.4786004588
 30
0.0
 10
15.1182534981
 20
31.4690318733
 30
0.0
 10
15.1722946527
 20
31.4549059899
 30
0.0
 10
15.2140181154
 20
31.4439797234
 30
0.0
 10
15.2423457491
 20
31.4365648283
 30
0.0
  0
ELLIPSE
  5
2BC
100
AcDbEntity
  8
_30_VOLUMEN
100
AcDbEllipse
 62
4
  6
CONTINUOUS
 10
152.6253736806
 20
17.8761285647
 30
0.0
 11
0.606144841
 21
-0.5457752663
 31
0.0
 40
0.9808148485
 41
5.5074723255
 42
7.0588982889
  0
ELLIPSE
  5
2BD
100
AcDbEntity
  8
_30_VOLUMEN
100
AcDbEllipse
 62
4
  6
CONTINUOUS
 10
146.309764997
 20
17.5451415387
 30
0.0
 11
-0.5457752663
 21
-0.606144841
 31
0.0
 40
0.9808148485
 41
-0.7757129817
 42
0.7757129817
  0
ELLIPSE
  5
2BE
100
AcDbEntity
  8
_30_VOLUMEN
100
AcDbEllipse
 62
4
  6
CONTINUOUS
 10
145.978777971
 20
23.8607502224
 30
0.0
 11
-0.606144841
 21
0.5457752663
 31
0.0
 40
0.9808148485
 41
5.5074723255
 42
7.0588982889
  0
ELLIPSE
  5
2BF
100
AcDbEntity
  8
_30_VOLUMEN
100
AcDbEllipse
 62
4
  6
CONTINUOUS
 10
152.2943866547
 20
24.1917372483
 30
0.0
 11
0.5457752663
 21
0.606144841
 31
0.0
 40
0.9808148485
 41
-0.7757129817
 42
0.7757129817
  0
ELLIPSE
  5
2C0
100
AcDbEntity
  8
K_CUT
100
AcDbEllipse
 62
5
  6
CONTINUOUS
 10
152.6253736806
 20
17.8761285647
 30
0.0
 11
0.606144841
 21
-0.5457752663
 31
0.0
 40
0.9808148485
 41
5.5074723255
 42
7.0588982889
  0
ELLIPSE
  5
2C1
100
AcDbEntity
  8
K_CUT
100
AcDbEllipse
 62
5
  6
CONTINUOUS
 10
146.309764997
 20
17.5451415387
 30
0.0
 11
-0.5457752663
 21
-0.606144841
 31
0.0
 40
0.9808148485
 41
5.5074723255
 42
7.0588982889
  0
ELLIPSE
  5
2C2
100
AcDbEntity
  8
K_CUT
100
AcDbEllipse
 62
5
  6
CONTINUOUS
 10
145.978777971
 20
23.8607502224
 30
0.0
 11
-0.606144841
 21
0.5457752663
 31
0.0
 40
0.9808148485
 41
5.5074723255
 42
7.0588982889
  0
ELLIPSE
  5
2C3
100
AcDbEntity
  8
K_CUT
100
AcDbEllipse
 62
5
  6
CONTINUOUS
 10
152.2943866547
 20
24.1917372483
 30
0.0
 11
0.5457752663
 21
0.606144841
 31
0.0
 40
0.9808148485
 41
5.5074723255
 42
7.0588982889
  0
ELLIPSE
  5
2C4
100
AcDbEntity
  8
_30_VOLUMEN
100
AcDbEllipse
 62
4
  6
CONTINUOUS
 10
153.6473858809
 20
6.1912725311
 30
0.0
 11
0.6248228761
 21
-0.5242886448
 31
0.0
 40
0.9808148485
 41
5.5074723255
 42
7.0588982889
  0
ELLIPSE
  5
2C5
100
AcDbEntity
  8
_30_VOLUMEN
100
AcDbEllipse
 62
4
  6
CONTINUOUS
 10
147.347175776
 20
5.6400755691
 30
0.0
 11
-0.5242886448
 21
-0.6248228761
 31
0.0
 40
0.9808148485
 41
-0.7757129817
 42
0.7757129817
  0
ELLIPSE
  5
2C6
100
AcDbEntity
  8
_30_VOLUMEN
100
AcDbEllipse
 62
4
  6
CONTINUOUS
 10
146.795978814
 20
11.940285674
 30
0.0
 11
-0.6248228761
 21
0.5242886448
 31
0.0
 40
0.9808148485
 41
-0.7757129817
 42
0.7757129817
  0
ELLIPSE
  5
2C7
100
AcDbEntity
  8
_30_VOLUMEN
100
AcDbEllipse
 62
4
  6
CONTINUOUS
 10
153.0961889189
 20
12.491482636
 30
0.0
 11
0.5242886448
 21
0.6248228761
 31
0.0
 40
0.9808148485
 41
5.5074723255
 42
7.0588982889
  0
ELLIPSE
  5
2C8
100
AcDbEntity
  8
K_CUT
100
AcDbEllipse
 62
5
  6
CONTINUOUS
 10
153.6473858809
 20
6.1912725311
 30
0.0
 11
0.6248228761
 21
-0.5242886448
 31
0.0
 40
0.9808148485
 41
5.5074723255
 42
7.0588982889
  0
ELLIPSE
  5
2C9
100
AcDbEntity
  8
K_CUT
100
AcDbEllipse
 62
5
  6
CONTINUOUS
 10
147.347175776
 20
5.6400755691
 30
0.0
 11
-0.5242886448
 21
-0.6248228761
 31
0.0
 40
0.9808148485
 41
5.5074723255
 42
7.0588982889
  0
ELLIPSE
  5
2CA
100
AcDbEntity
  8
K_CUT
100
AcDbEllipse
 62
5
  6
CONTINUOUS
 10
146.795978814
 20
11.940285674
 30
0.0
 11
-0.6248228761
 21
0.5242886448
 31
0.0
 40
0.9808148485
 41
5.5074723255
 42
7.0588982889
  0
ELLIPSE
  5
2CB
100
AcDbEntity
  8
K_CUT
100
AcDbEllipse
 62
5
  6
CONTINUOUS
 10
153.0961889189
 20
12.491482636
 30
0.0
 11
0.5242886448
 21
0.6248228761
 31
0.0
 40
0.9808148485
 41
5.5074723255
 42
7.0588982889
  0
ELLIPSE
  5
2CC
100
AcDbEntity
  8
_30_VOLUMEN
100
AcDbEllipse
 62
4
  6
CONTINUOUS
 10
154.191482636
 20
-0.107146917
 30
0.0
 11
0.6248228761
 21
0.5242886448
 31
0.0
 40
0.9808148485
 41
-0.7757129817
 42
0.7473241195
  0
ELLIPSE
  5
2CD
100
AcDbEntity
  8
_30_VOLUMEN
100
AcDbEllipse
 62
4
  6
CONTINUOUS
 10
153.640285674
 20
-6.4073570219
 30
0.0
 11
-0.5242886448
 21
0.6248228761
 31
0.0
 40
0.9808148485
 41
-3.8901482214
 42
-2.3658796719
  0
ELLIPSE
  5
2CE
100
AcDbEntity
  8
_30_VOLUMEN
100
AcDbEllipse
 62
4
  6
CONTINUOUS
 10
153.6464098247
 20
-0.564517312
 30
0.0
 11
-0.6248228761
 21
-0.5242886448
 31
0.0
 40
0.9808148485
 41
2.3658796719
 42
3.8898542194
  0
ELLIPSE
  5
2CF
100
AcDbEntity
  8
_30_VOLUMEN
100
AcDbEllipse
 62
4
  6
CONTINUOUS
 10
153.182915279
 20
-5.8622842106
 30
0.0
 11
-0.5242886448
 21
0.6248228761
 31
0.0
 40
0.9808148485
 41
2.393331057
 42
3.9173056353
  0
ELLIPSE
  5
2D0
100
AcDbEntity
  8
K_CUT
100
AcDbEllipse
 62
5
  6
CONTINUOUS
 10
153.640285674
 20
-6.4073570219
 30
0.0
 11
-0.5242886448
 21
0.6248228761
 31
0.0
 40
0.9808148485
 41
-3.8899265331
 42
-2.3658796719
  0
ELLIPSE
  5
2D1
100
AcDbEntity
  8
K_CUT
100
AcDbEllipse
 62
5
  6
CONTINUOUS
 10
154.191482636
 20
-0.107146917
 30
0.0
 11
0.6248228761
 21
0.5242886448
 31
0.0
 40
0.9808148485
 41
-0.7757129817
 42
0.7757129817
  0
ELLIPSE
  5
2D2
100
AcDbEntity
  8
_30_VOLUMEN
100
AcDbEllipse
 62
4
  6
CONTINUOUS
 10
153.0981289543
 20
-12.607439815
 30
0.0
 11
0.606144841
 21
0.5457752663
 31
0.0
 40
0.9808148485
 41
-0.7757129817
 42
0.7757129817
  0
ELLIPSE
  5
2D3
100
AcDbEntity
  8
_30_VOLUMEN
100
AcDbEllipse
 62
4
  6
CONTINUOUS
 10
152.7671419283
 20
-18.9230484987
 30
0.0
 11
-0.5457752663
 21
0.606144841
 31
0.0
 40
0.9808148485
 41
-3.9173056353
 42
-2.3658796719
  0
ELLIPSE
  5
2D4
100
AcDbEntity
  8
_30_VOLUMEN
100
AcDbEllipse
 62
4
  6
CONTINUOUS
 10
152.5693501832
 20
-13.0835543591
 30
0.0
 11
-0.606144841
 21
-0.5457752663
 31
0.0
 40
0.9808148485
 41
2.3658796719
 42
3.8549635242
  0
ELLIPSE
  5
2D5
100
AcDbEntity
  8
_30_VOLUMEN
100
AcDbEllipse
 62
4
  6
CONTINUOUS
 10
152.2910273843
 20
-18.3942697276
 30
0.0
 11
-0.5457752663
 21
0.606144841
 31
0.0
 40
0.9808148485
 41
2.4282216243
 42
3.9173056353
  0
ELLIPSE
  5
2D6
100
AcDbEntity
  8
K_CUT
100
AcDbEllipse
 62
5
  6
CONTINUOUS
 10
152.7671419283
 20
-18.9230484987
 30
0.0
 11
-0.5457752663
 21
0.606144841
 31
0.0
 40
0.9808148485
 41
-3.8842965723
 42
-2.3658796719
  0
ELLIPSE
  5
2D7
100
AcDbEntity
  8
K_CUT
100
AcDbEllipse
 62
5
  6
CONTINUOUS
 10
153.0981289543
 20
-12.607439815
 30
0.0
 11
0.606144841
 21
0.5457752663
 31
0.0
 40
0.9808148485
 41
-0.7757129817
 42
0.7757129817
  0
ELLIPSE
  5
2D8
100
AcDbEntity
  8
CUT
100
AcDbEllipse
 62
1
  6
CONTINUOUS
 10
152.2943866547
 20
24.1917372483
 30
0.0
 11
0.5457752663
 21
0.606144841
 31
0.0
 40
0.9808148485
 41
-0.7757129817
 42
0.7757129817
  0
ELLIPSE
  5
2D9
100
AcDbEntity
  8
CUT
100
AcDbEllipse
 62
1
  6
CONTINUOUS
 10
152.6253736806
 20
17.8761285647
 30
0.0
 11
0.606144841
 21
-0.5457752663
 31
0.0
 40
0.9808148485
 41
-0.7757129817
 42
0.7757129817
  0
ELLIPSE
  5
2DA
100
AcDbEntity
  8
CUT
100
AcDbEllipse
 62
1
  6
CONTINUOUS
 10
146.309764997
 20
17.5451415387
 30
0.0
 11
0.5457752663
 21
0.606144841
 31
0.0
 40
0.9808148485
 41
-3.9173056353
 42
-2.3658796719
  0
ELLIPSE
  5
2DB
100
AcDbEntity
  8
CUT
100
AcDbEllipse
 62
1
  6
CONTINUOUS
 10
145.978777971
 20
23.8607502224
 30
0.0
 11
0.606144841
 21
-0.5457752663
 31
0.0
 40
0.9808148485
 41
2.3658796719
 42
3.9173056353
  0
ELLIPSE
  5
2DC
100
AcDbEntity
  8
CUT
100
AcDbEllipse
 62
1
  6
CONTINUOUS
 10
153.640285674
 20
-6.4073570219
 30
0.0
 11
-0.5242886448
 21
0.6248228761
 31
0.0
 40
0.9808148485
 41
-3.9173056353
 42
-2.3658796719
  0
ELLIPSE
  5
2DD
100
AcDbEntity
  8
CUT
100
AcDbEllipse
 62
1
  6
CONTINUOUS
 10
154.191482636
 20
-0.107146917
 30
0.0
 11
0.6248228761
 21
0.5242886448
 31
0.0
 40
0.9808148485
 41
-0.7757129817
 42
0.7757129817
  0
ELLIPSE
  5
2DE
100
AcDbEntity
  8
_30_VOLUMEN
100
AcDbEllipse
 62
4
  6
CONTINUOUS
 10
153.8246588282
 20
-0.0
 30
0.0
 11
1.3098243152
 21
24.4993103924
 31
0.0
 40
0.1403404833
 41
-4.2120084291
 42
-3.1340896698
  0
ELLIPSE
  5
2DF
100
AcDbEntity
  8
_30_VOLUMEN
100
AcDbEllipse
 62
4
  6
CONTINUOUS
 10
154.3612420645
 20
-0.0
 30
0.0
 11
-2.1864852328
 21
24.4980880587
 31
0.0
 40
0.1399846117
 41
1.3673488912
 42
1.5297278565
  0
ELLIPSE
  5
2E0
100
AcDbEntity
  8
_30_VOLUMEN
100
AcDbEllipse
 62
4
  6
CONTINUOUS
 10
154.2387579355
 20
-0.0
 30
0.0
 11
2.1864852328
 21
24.4980880587
 31
0.0
 40
0.1399846117
 41
1.5547141625
 42
2.0761670473
  0
ELLIPSE
  5
2E1
100
AcDbEntity
  8
_30_VOLUMEN
100
AcDbEllipse
 62
4
  6
CONTINUOUS
 10
153.9087065108
 20
4.85
 30
0.0
 11
-0.017848859
 21
0.1999843923
 31
0.0
 40
0.1399846117
 41
-3.1540858066
 42
-1.5832894798
  0
ENDSEC
  0
SECTION
  2
OBJECTS
  0
DICTIONARY
  5
C
100
AcDbDictionary
280
0
281
1
  3
ACAD_GROUP
350
D
  3
ACAD_MLINESTYLE
350
17
  3
ACAD_LAYOUT
350
1A
  3
ACAD_PLOTSETTINGS
350
19
  3
ACAD_PLOTSTYLENAME
350
E
  0
DICTIONARY
  5
D
102
{ACAD_REACTORS
330
C
102
}
100
AcDbDictionary
280
0
281
1
  0
ACDBDICTIONARYWDFLT
  5
E
102
{ACAD_REACTORS
330
C
102
}
100
AcDbDictionary
281
1
  3
Normal
350
F
100
AcDbDictionaryWithDefault
340
F
  0
DICTIONARY
  5
17
102
{ACAD_REACTORS
330
C
102
}
100
AcDbDictionary
280
0
281
1
  3
Standard
350
18
  0
DICTIONARY
  5
19
102
{ACAD_REACTORS
330
C
102
}
100
AcDbDictionary
281
1
  0
DICTIONARY
  5
1A
102
{ACAD_REACTORS
330
C
102
}
100
AcDbDictionary
281
1
  3
Model
350
2E2
  3
Layout1
350
2E3
  0
ACDBPLACEHOLDER
  5
F
102
{ACAD_REACTORS
330
E
102
}
  0
MLINESTYLE
  5
18
102
{ACAD_REACTORS
330
17
102
}
100
AcDbMlineStyle
  2
STANDARD
 70
0
  3

 62
256
 51
90.0
 52
90.0
 71
2
 49
0.5
 62
256
  6
BYLAYER
 49
-0.5
 62
256
  6
BYLAYER
  0
LAYOUT
  5
2E2
102
{ACAD_REACTORS
330
1A
102
}
100
AcDbPlotSettings
  1

  2
none_device
  4
ISO_A3_(420.00_x_297.00_MM)
  6

 40
0.0
 41
0.0
 42
0.0
 43
0.0
 44
420.0
 45
297.0
 46
0.0
 47
0.0
 48
0.0
 49
0.0
140
0.0
141
0.0
142
1.0
143
1.0
 70
1024
 72
1
 73
0
 74
0
  7

 75
0
147
1.0
148
0.0
149
0.0
100
AcDbLayout
  1
Model
 70
0
 71
0
 10
0.0
 20
0.0
 11
420.0
 21
297.0
 12
0.0
 22
0.0
 32
0.0
 14
0.0
 24
0.0
 34
0.0
 15
0.0
 25
0.0
 35
0.0
146
0.0
 13
0.0
 23
0.0
 33
0.0
 16
1.0
 26
0.0
 36
0.0
 17
0.0
 27
1.0
 37
0.0
 76
0
330
213
345
0
346
0
  0
LAYOUT
  5
2E3
102
{ACAD_REACTORS
330
1A
102
}
100
AcDbPlotSettings
  1

  2
none_device
  4
ISO_A3_(420.00_x_297.00_MM)
  6

 40
0.0
 41
0.0
 42
0.0
 43
0.0
 44
420.0
 45
297.0
 46
0.0
 47
0.0
 48
0.0
 49
0.0
140
0.0
141
0.0
142
1.0
143
1.0
 70
0
 72
1
 73
0
 74
0
  7

 75
0
147
1.0
148
0.0
149
0.0
100
AcDbLayout
  1
Layout1
 70
0
 71
1
 10
0.0
 20
0.0
 11
420.0
 21
297.0
 12
0.0
 22
0.0
 32
0.0
 14
0.0
 24
0.0
 34
0.0
 15
0.0
 25
0.0
 35
0.0
146
0.0
 13
0.0
 23
0.0
 33
0.0
 16
1.0
 26
0.0
 36
0.0
 17
0.0
 27
1.0
 37
0.0
 76
0
330
214
345
0
346
0
  0
ENDSEC
  0
EOF
